  0
SECTION
  2
HEADER
  9
$ACADVER
  1
AC1015
  9
$ACADMAINTVER
 70
     6
  9
$DWGCODEPAGE
  3
ANSI_1252
  9
$INSBASE
 10
0.0
 20
0.0
 30
0.0
  9
$EXTMIN
 10
134.3992989472256
 20
738.1925014954597
 30
0.0
  9
$EXTMAX
 10
689.3992989472256
 20
1139.19250149546
 30
0.0
  9
$LIMMIN
 10
0.0
 20
0.0
  9
$LIMMAX
 10
12.0
 20
9.0
  9
$ORTHOMODE
 70
     0
  9
$REGENMODE
 70
     1
  9
$FILLMODE
 70
     1
  9
$QTEXTMODE
 70
     0
  9
$MIRRTEXT
 70
     1
  9
$LTSCALE
 40
1.0
  9
$ATTMODE
 70
     1
  9
$TEXTSIZE
 40
0.2
  9
$TRACEWID
 40
0.05
  9
$TEXTSTYLE
  7
Standard
  9
$CLAYER
  8
0
  9
$CELTYPE
  6
ByLayer
  9
$CECOLOR
 62
   256
  9
$CELTSCALE
 40
1.0
  9
$DISPSILH
 70
     0
  9
$DIMSCALE
 40
1.0
  9
$DIMASZ
 40
0.18
  9
$DIMEXO
 40
0.0625
  9
$DIMDLI
 40
0.38
  9
$DIMRND
 40
0.0
  9
$DIMDLE
 40
0.0
  9
$DIMEXE
 40
0.18
  9
$DIMTP
 40
0.0
  9
$DIMTM
 40
0.0
  9
$DIMTXT
 40
0.18
  9
$DIMCEN
 40
0.09
  9
$DIMTSZ
 40
0.0
  9
$DIMTOL
 70
     0
  9
$DIMLIM
 70
     0
  9
$DIMTIH
 70
     1
  9
$DIMTOH
 70
     1
  9
$DIMSE1
 70
     0
  9
$DIMSE2
 70
     0
  9
$DIMTAD
 70
     0
  9
$DIMZIN
 70
     0
  9
$DIMBLK
  1

  9
$DIMASO
 70
     1
  9
$DIMSHO
 70
     1
  9
$DIMPOST
  1

  9
$DIMAPOST
  1

  9
$DIMALT
 70
     0
  9
$DIMALTD
 70
     2
  9
$DIMALTF
 40
25.4
  9
$DIMLFAC
 40
1.0
  9
$DIMTOFL
 70
     0
  9
$DIMTVP
 40
0.0
  9
$DIMTIX
 70
     0
  9
$DIMSOXD
 70
     0
  9
$DIMSAH
 70
     0
  9
$DIMBLK1
  1

  9
$DIMBLK2
  1

  9
$DIMSTYLE
  2
Standard
  9
$DIMCLRD
 70
     0
  9
$DIMCLRE
 70
     0
  9
$DIMCLRT
 70
     0
  9
$DIMTFAC
 40
1.0
  9
$DIMGAP
 40
0.09
  9
$DIMJUST
 70
     0
  9
$DIMSD1
 70
     0
  9
$DIMSD2
 70
     0
  9
$DIMTOLJ
 70
     1
  9
$DIMTZIN
 70
     0
  9
$DIMALTZ
 70
     0
  9
$DIMALTTZ
 70
     0
  9
$DIMUPT
 70
     0
  9
$DIMDEC
 70
     4
  9
$DIMTDEC
 70
     4
  9
$DIMALTU
 70
     2
  9
$DIMALTTD
 70
     2
  9
$DIMTXSTY
  7
Standard
  9
$DIMAUNIT
 70
     0
  9
$DIMADEC
 70
     0
  9
$DIMALTRND
 40
0.0
  9
$DIMAZIN
 70
     0
  9
$DIMDSEP
 70
    46
  9
$DIMATFIT
 70
     3
  9
$DIMFRAC
 70
     0
  9
$DIMLDRBLK
  1

  9
$DIMLUNIT
 70
     2
  9
$DIMLWD
 70
    -2
  9
$DIMLWE
 70
    -2
  9
$DIMTMOVE
 70
     0
  9
$LUNITS
 70
     2
  9
$LUPREC
 70
     4
  9
$SKETCHINC
 40
0.1
  9
$FILLETRAD
 40
0.5
  9
$AUNITS
 70
     0
  9
$AUPREC
 70
     0
  9
$MENU
  1
.
  9
$ELEVATION
 40
0.0
  9
$PELEVATION
 40
0.0
  9
$THICKNESS
 40
0.0
  9
$LIMCHECK
 70
     0
  9
$CHAMFERA
 40
0.5
  9
$CHAMFERB
 40
0.5
  9
$CHAMFERC
 40
1.0
  9
$CHAMFERD
 40
0.0
  9
$SKPOLY
 70
     0
  9
$TDCREATE
 40
2456238.437218333
  9
$TDUCREATE
 40
2456238.395551667
  9
$TDUPDATE
 40
2456238.437218345
  9
$TDUUPDATE
 40
2456238.395551678
  9
$TDINDWG
 40
0.0000000116
  9
$TDUSRTIMER
 40
0.0000000116
  9
$USRTIMER
 70
     1
  9
$ANGBASE
 50
0.0
  9
$ANGDIR
 70
     0
  9
$PDMODE
 70
     0
  9
$PDSIZE
 40
0.0
  9
$PLINEWID
 40
0.0
  9
$SPLFRAME
 70
     0
  9
$SPLINETYPE
 70
     6
  9
$SPLINESEGS
 70
     8
  9
$HANDSEED
  5
27C
  9
$SURFTAB1
 70
     6
  9
$SURFTAB2
 70
     6
  9
$SURFTYPE
 70
     6
  9
$SURFU
 70
     6
  9
$SURFV
 70
     6
  9
$UCSBASE
  2

  9
$UCSNAME
  2

  9
$UCSORG
 10
0.0
 20
0.0
 30
0.0
  9
$UCSXDIR
 10
1.0
 20
0.0
 30
0.0
  9
$UCSYDIR
 10
0.0
 20
1.0
 30
0.0
  9
$UCSORTHOREF
  2

  9
$UCSORTHOVIEW
 70
     0
  9
$UCSORGTOP
 10
0.0
 20
0.0
 30
0.0
  9
$UCSORGBOTTOM
 10
0.0
 20
0.0
 30
0.0
  9
$UCSORGLEFT
 10
0.0
 20
0.0
 30
0.0
  9
$UCSORGRIGHT
 10
0.0
 20
0.0
 30
0.0
  9
$UCSORGFRONT
 10
0.0
 20
0.0
 30
0.0
  9
$UCSORGBACK
 10
0.0
 20
0.0
 30
0.0
  9
$PUCSBASE
  2

  9
$PUCSNAME
  2

  9
$PUCSORG
 10
0.0
 20
0.0
 30
0.0
  9
$PUCSXDIR
 10
1.0
 20
0.0
 30
0.0
  9
$PUCSYDIR
 10
0.0
 20
1.0
 30
0.0
  9
$PUCSORTHOREF
  2

  9
$PUCSORTHOVIEW
 70
     0
  9
$PUCSORGTOP
 10
0.0
 20
0.0
 30
0.0
  9
$PUCSORGBOTTOM
 10
0.0
 20
0.0
 30
0.0
  9
$PUCSORGLEFT
 10
0.0
 20
0.0
 30
0.0
  9
$PUCSORGRIGHT
 10
0.0
 20
0.0
 30
0.0
  9
$PUCSORGFRONT
 10
0.0
 20
0.0
 30
0.0
  9
$PUCSORGBACK
 10
0.0
 20
0.0
 30
0.0
  9
$USERI1
 70
     0
  9
$USERI2
 70
     0
  9
$USERI3
 70
     0
  9
$USERI4
 70
     0
  9
$USERI5
 70
     0
  9
$USERR1
 40
18.0
  9
$USERR2
 40
0.0
  9
$USERR3
 40
0.0
  9
$USERR4
 40
0.0
  9
$USERR5
 40
0.0
  9
$WORLDVIEW
 70
     1
  9
$SHADEDGE
 70
     3
  9
$SHADEDIF
 70
    70
  9
$TILEMODE
 70
     1
  9
$MAXACTVP
 70
    64
  9
$PINSBASE
 10
0.0
 20
0.0
 30
0.0
  9
$PLIMCHECK
 70
     0
  9
$PEXTMIN
 10
1.00000000000000E+20
 20
1.00000000000000E+20
 30
1.00000000000000E+20
  9
$PEXTMAX
 10
-1.00000000000000E+20
 20
-1.00000000000000E+20
 30
-1.00000000000000E+20
  9
$PLIMMIN
 10
0.0
 20
0.0
  9
$PLIMMAX
 10
12.0
 20
9.0
  9
$UNITMODE
 70
     0
  9
$VISRETAIN
 70
     1
  9
$PLINEGEN
 70
     0
  9
$PSLTSCALE
 70
     1
  9
$TREEDEPTH
 70
  3020
  9
$CMLSTYLE
  2
Standard
  9
$CMLJUST
 70
     0
  9
$CMLSCALE
 40
1.0
  9
$PROXYGRAPHICS
 70
     1
  9
$MEASUREMENT
 70
     1
  9
$CELWEIGHT
370
    -1
  9
$ENDCAPS
280
     0
  9
$JOINSTYLE
280
     0
  9
$LWDISPLAY
290
     0
  9
$INSUNITS
 70
     1
  9
$HYPERLINKBASE
  1

  9
$STYLESHEET
  1

  9
$XEDIT
290
     1
  9
$CEPSNTYPE
380
     0
  9
$PSTYLEMODE
290
     1
  9
$FINGERPRINTGUID
  2
{4306155C-10D5-480A-8FD1-E020937DF7B1}
  9
$VERSIONGUID
  2
{FAEB1C32-E019-11D5-929B-00C0DF256EC4}
  9
$EXTNAMES
290
     1
  9
$PSVPSCALE
 40
0.0
  9
$OLESTARTUP
290
     0
  0
ENDSEC
  0
SECTION
  2
CLASSES
  0
CLASS
  1
ACDBDICTIONARYWDFLT
  2
AcDbDictionaryWithDefault
  3
ObjectDBX Classes
 90
        0
280
     0
281
     0
  0
CLASS
  1
VISUALSTYLE
  2
AcDbVisualStyle
  3
ObjectDBX Classes
 90
     4095
280
     0
281
     0
  0
CLASS
  1
MATERIAL
  2
AcDbMaterial
  3
ObjectDBX Classes
 90
     1153
280
     0
281
     0
  0
CLASS
  1
SCALE
  2
AcDbScale
  3
ObjectDBX Classes
 90
     1153
280
     0
281
     0
  0
CLASS
  1

  2
exOdDbPolyline
  3

 90
        0
280
     0
281
     1
  0
CLASS
  1

  2
exOdDbCircle
  3

 90
        0
280
     0
281
     1
  0
CLASS
  1

  2
exOdDbSpline
  3

 90
        0
280
     0
281
     1
  0
CLASS
  1
DICTIONARYVAR
  2
AcDbDictionaryVar
  3
ObjectDBX Classes
 90
        0
280
     0
281
     0
  0
CLASS
  1
ACDBPLACEHOLDER
  2
AcDbPlaceHolder
  3
ObjectDBX Classes
 90
        0
280
     0
281
     0
  0
CLASS
  1
LAYOUT
  2
AcDbLayout
  3
ObjectDBX Classes
 90
        0
280
     0
281
     0
  0
ENDSEC
  0
SECTION
  2
TABLES
  0
TABLE
  2
VPORT
  5
8
330
0
100
AcDbSymbolTable
 70
     1
  0
VPORT
  5
29
330
8
100
AcDbSymbolTableRecord
100
AcDbViewportTableRecord
  2
*Active
 70
     0
 10
0.0
 20
0.0
 11
1.0
 21
1.0
 12
411.8992989472256
 22
938.6925014954599
 13
0.0
 23
0.0
 14
0.5
 24
0.5
 15
0.5
 25
0.5
 16
0.0
 26
0.0
 36
1.0
 17
0.0
 27
0.0
 37
0.0
 40
441.1000000000003
 41
1.60267857142857
 42
50.0
 43
0.0
 44
0.0
 50
0.0
 51
0.0
 71
     0
 72
   100
 73
     1
 74
     3
 75
     0
 76
     0
 77
     0
 78
     0
281
     0
 65
     1
110
0.0
120
0.0
130
0.0
111
1.0
121
0.0
131
0.0
112
0.0
122
1.0
132
0.0
 79
     0
146
0.0
  0
ENDTAB
  0
TABLE
  2
LTYPE
  5
5
330
0
100
AcDbSymbolTable
 70
     8
  0
LTYPE
  5
14
330
5
100
AcDbSymbolTableRecord
100
AcDbLinetypeTableRecord
  2
ByBlock
 70
     0
  3

 72
    65
 73
     0
 40
0.0
  0
LTYPE
  5
15
330
5
100
AcDbSymbolTableRecord
100
AcDbLinetypeTableRecord
  2
ByLayer
 70
     0
  3

 72
    65
 73
     0
 40
0.0
  0
LTYPE
  5
16
330
5
100
AcDbSymbolTableRecord
100
AcDbLinetypeTableRecord
  2
Continuous
 70
     0
  3
Solid line
 72
    65
 73
     0
 40
0.0
  0
LTYPE
  5
3F
330
5
100
AcDbSymbolTableRecord
100
AcDbLinetypeTableRecord
  2
DASHED
 70
     0
  3
Dashed
 72
    65
 73
     2
 40
15.0
 49
7.0
 74
     0
 49
-8.0
 74
     0
  0
LTYPE
  5
40
330
5
100
AcDbSymbolTableRecord
100
AcDbLinetypeTableRecord
  2
DOTTED
 70
     0
  3
Dotted
 72
    65
 73
     2
 40
1.0
 49
0.0
 74
     0
 49
-1.0
 74
     0
  0
LTYPE
  5
41
330
5
100
AcDbSymbolTableRecord
100
AcDbLinetypeTableRecord
  2
DOT_CENTER
 70
     0
  3
Dot_Center
 72
    65
 73
     4
 40
14.0
 49
12.0
 74
     0
 49
-1.0
 74
     0
 49
0.0
 74
     0
 49
-1.0
 74
     0
  0
LTYPE
  5
42
330
5
100
AcDbSymbolTableRecord
100
AcDbLinetypeTableRecord
  2
LONG_DASHED
 70
     0
  3
Long_Dashed
 72
    65
 73
     2
 40
15.0
 49
10.0
 74
     0
 49
-5.0
 74
     0
  0
LTYPE
  5
43
330
5
100
AcDbSymbolTableRecord
100
AcDbLinetypeTableRecord
  2
DASH_CENTER
 70
     0
  3
Dash_Center
 72
    65
 73
     4
 40
14.0
 49
11.0
 74
     0
 49
-1.0
 74
     0
 49
1.0
 74
     0
 49
-1.0
 74
     0
  0
LTYPE
  5
44
330
5
100
AcDbSymbolTableRecord
100
AcDbLinetypeTableRecord
  2
PHANTOM
 70
     0
  3
Phantom
 72
    65
 73
     6
 40
13.0
 49
10.0
 74
     0
 49
-1.0
 74
     0
 49
0.0
 74
     0
 49
-1.0
 74
     0
 49
0.0
 74
     0
 49
-1.0
 74
     0
  0
LTYPE
  5
45
330
5
100
AcDbSymbolTableRecord
100
AcDbLinetypeTableRecord
  2
CENTER_DASH_DASH
 70
     0
  3
Center_Dash_Dash
 72
    65
 73
     6
 40
14.0
 49
9.0
 74
     0
 49
-1.0
 74
     0
 49
1.0
 74
     0
 49
-1.0
 74
     0
 49
1.0
 74
     0
 49
-1.0
 74
     0
  0
ENDTAB
  0
TABLE
  2
LAYER
  5
2
330
0
100
AcDbSymbolTable
 70
     5
  0
LAYER
  5
10
330
2
100
AcDbSymbolTableRecord
100
AcDbLayerTableRecord
  2
0
 70
     0
 62
     7
  6
Continuous
370
    -3
390
F
  0
LAYER
  5
46
330
2
100
AcDbSymbolTableRecord
100
AcDbLayerTableRecord
  2
1
 70
     0
 62
     7
  6
Continuous
370
    -3
390
F
  0
LAYER
  5
47
330
2
100
AcDbSymbolTableRecord
100
AcDbLayerTableRecord
  2
Schraffur
 70
     0
 62
     7
  6
Continuous
370
    -3
390
F
  0
LAYER
  5
48
330
2
100
AcDbSymbolTableRecord
100
AcDbLayerTableRecord
  2
Skizziergeometrie_ISO_
 70
     0
 62
     7
  6
Continuous
370
    -3
390
F
  0
LAYER
  5
49
330
2
100
AcDbSymbolTableRecord
100
AcDbLayerTableRecord
  2
Symbole_ISO_
 70
     0
 62
     7
  6
Continuous
370
    -3
390
F
  0
ENDTAB
  0
TABLE
  2
STYLE
  5
3
330
0
100
AcDbSymbolTable
 70
     6
  0
STYLE
  5
11
330
3
100
AcDbSymbolTableRecord
100
AcDbTextStyleTableRecord
  2
Standard
 70
     0
 40
0.0
 41
1.0
 50
0.0
 71
     0
 42
0.2
  3
txt
  4

  0
STYLE
  5
75
330
3
100
AcDbSymbolTableRecord
100
AcDbTextStyleTableRecord
  2
CONVERTER_11
 70
     0
 40
0.0
 41
0.67499998211861
 50
0.0
 71
     0
 42
0.2
  3
txt.shx
  4

  0
STYLE
  5
21A
330
3
100
AcDbSymbolTableRecord
100
AcDbTextStyleTableRecord
  2
CONVERTER_12
 70
     0
 40
0.0
 41
0.9
 50
0.0
 71
     0
 42
0.2
  3
txt.shx
  4

  0
STYLE
  5
220
330
3
100
AcDbSymbolTableRecord
100
AcDbTextStyleTableRecord
  2
CONVERTER_13
 70
     0
 40
0.0
 41
0.89999994635582
 50
0.0
 71
     0
 42
0.2
  3
txt.shx
  4

  0
STYLE
  5
224
330
3
100
AcDbSymbolTableRecord
100
AcDbTextStyleTableRecord
  2
CONVERTER_14
 70
     0
 40
0.0
 41
0.9
 50
0.0
 71
     0
 42
0.2
  3
txt.shx
  4

  0
STYLE
  5
22E
330
3
100
AcDbSymbolTableRecord
100
AcDbTextStyleTableRecord
  2
CONVERTER_15
 70
     0
 40
0.0
 41
0.95
 50
0.0
 71
     0
 42
0.2
  3
simplex.shx
  4

  0
ENDTAB
  0
TABLE
  2
VIEW
  5
6
330
0
100
AcDbSymbolTable
 70
     0
  0
ENDTAB
  0
TABLE
  2
UCS
  5
7
330
0
100
AcDbSymbolTable
 70
     0
  0
ENDTAB
  0
TABLE
  2
APPID
  5
9
330
0
100
AcDbSymbolTable
 70
     1
  0
APPID
  5
12
330
9
100
AcDbSymbolTableRecord
100
AcDbRegAppTableRecord
  2
ACAD
 70
     0
  0
ENDTAB
  0
TABLE
  2
DIMSTYLE
  5
A
330
0
100
AcDbSymbolTable
 70
     4
100
AcDbDimStyleTable
  0
DIMSTYLE
105
27
330
A
100
AcDbSymbolTableRecord
100
AcDbDimStyleTableRecord
  2
Standard
 70
     0
340
11
  0
DIMSTYLE
105
232
102
{ACAD_REACTORS
330
233
102
}
330
A
100
AcDbSymbolTableRecord
100
AcDbDimStyleTableRecord
  2
ME10_DIM_10
 70
     0
 41
6.0
 42
1.0
 44
2.0
 73
     0
 74
     0
 78
     8
140
6.0
147
4.0
172
     1
173
     1
174
     1
175
     1
176
     2
177
     2
178
     4
271
     0
340
22E
  0
DIMSTYLE
105
23E
102
{ACAD_REACTORS
330
23F
102
}
330
A
100
AcDbSymbolTableRecord
100
AcDbDimStyleTableRecord
  2
ME10_DIM_11
 70
     0
 41
6.0
 42
1.0
 44
2.0
 73
     0
 74
     0
 78
     8
140
6.0
147
4.0
172
     1
173
     1
174
     1
175
     1
176
     2
177
     2
178
     4
271
     2
340
22E
  0
DIMSTYLE
105
24A
102
{ACAD_REACTORS
330
24B
102
}
330
A
100
AcDbSymbolTableRecord
100
AcDbDimStyleTableRecord
  2
ME10_DIM_12
 70
     0
 41
6.0
 42
1.0
 44
2.0
 73
     0
 74
     0
 78
     8
140
6.0
147
4.0
172
     1
173
     1
174
     1
175
     1
176
     2
177
     2
178
     4
271
     0
340
22E
  0
ENDTAB
  0
TABLE
  2
BLOCK_RECORD
  5
1
330
0
100
AcDbSymbolTable
 70
     5
  0
BLOCK_RECORD
  5
1F
330
1
100
AcDbSymbolTableRecord
100
AcDbBlockTableRecord
  2
*Model_Space
340
22
  0
BLOCK_RECORD
  5
1B
330
1
100
AcDbSymbolTableRecord
100
AcDbBlockTableRecord
  2
*Paper_Space
340
1E
  0
BLOCK_RECORD
  5
23
330
1
100
AcDbSymbolTableRecord
100
AcDbBlockTableRecord
  2
*Paper_Space0
340
26
  0
BLOCK_RECORD
  5
4A
330
1
100
AcDbSymbolTableRecord
100
AcDbBlockTableRecord
  2
Ränder_Ilme_Rahmen_A4_quer
340
0
102
{BLKREFS
331
6F
102
}
  0
BLOCK_RECORD
  5
227
330
1
100
AcDbSymbolTableRecord
100
AcDbBlockTableRecord
  2
*D2
340
0
  0
BLOCK_RECORD
  5
234
330
1
100
AcDbSymbolTableRecord
100
AcDbBlockTableRecord
  2
*D3
340
0
  0
BLOCK_RECORD
  5
240
330
1
100
AcDbSymbolTableRecord
100
AcDbBlockTableRecord
  2
*D4
340
0
  0
ENDTAB
  0
ENDSEC
  0
SECTION
  2
BLOCKS
  0
BLOCK
  5
20
330
1F
100
AcDbEntity
  8
0
100
AcDbBlockBegin
  2
*Model_Space
 70
     0
 10
0.0
 20
0.0
 30
0.0
  3
*Model_Space
  1

  0
ENDBLK
  5
21
330
1F
100
AcDbEntity
  8
0
100
AcDbBlockEnd
  0
BLOCK
  5
1C
330
1B
100
AcDbEntity
 67
     1
  8
0
100
AcDbBlockBegin
  2
*Paper_Space
 70
     0
 10
0.0
 20
0.0
 30
0.0
  3
*Paper_Space
  1

  0
ENDBLK
  5
1D
330
1B
100
AcDbEntity
 67
     1
  8
0
100
AcDbBlockEnd
  0
BLOCK
  5
24
330
23
100
AcDbEntity
  8
0
100
AcDbBlockBegin
  2
*Paper_Space0
 70
     0
 10
0.0
 20
0.0
 30
0.0
  3
*Paper_Space0
  1

  0
ENDBLK
  5
25
330
23
100
AcDbEntity
  8
0
100
AcDbBlockEnd
  0
BLOCK
  5
4B
330
4A
100
AcDbEntity
  8
0
100
AcDbBlockBegin
  2
Ränder_Ilme_Rahmen_A4_quer
 70
     0
 10
114.8992989472256
 20
718.69250149546
 30
0.0
  3
Ränder_Ilme_Rahmen_A4_quer
  1

  0
LWPOLYLINE
  5
70
330
4A
100
AcDbEntity
  8
Skizziergeometrie_ISO_
  6
Continuous
 62
     7
100
AcDbPolyline
 90
        2
 70
     0
 43
0.5
 10
134.8992989472256
 20
738.69250149546
 10
134.8992989472256
 20
1098.69250149546
  0
LWPOLYLINE
  5
71
330
4A
100
AcDbEntity
  8
Skizziergeometrie_ISO_
  6
Continuous
 62
     7
100
AcDbPolyline
 90
        2
 70
     0
 43
0.5
 10
134.8992989472256
 20
1098.69250149546
 10
688.8992989472256
 20
1098.69250149546
  0
LWPOLYLINE
  5
72
330
4A
100
AcDbEntity
  8
Skizziergeometrie_ISO_
  6
Continuous
 62
     7
100
AcDbPolyline
 90
        2
 70
     0
 43
0.5
 10
134.8992989472256
 20
738.69250149546
 10
688.8992989472256
 20
738.69250149546
  0
LWPOLYLINE
  5
73
330
4A
100
AcDbEntity
  8
Skizziergeometrie_ISO_
  6
Continuous
 62
     7
100
AcDbPolyline
 90
        2
 70
     0
 43
0.5
 10
411.8992989472256
 20
1138.69250149546
 10
411.8992989472256
 20
1110.69250149546
  0
LWPOLYLINE
  5
74
330
4A
100
AcDbEntity
  8
Skizziergeometrie_ISO_
  6
Continuous
 62
     7
100
AcDbPolyline
 90
        2
 70
     0
 43
0.5
 10
688.8992989472256
 20
1098.69250149546
 10
688.8992989472256
 20
738.69250149546
  0
MTEXT
  5
76
330
4A
100
AcDbEntity
  8
Symbole_ISO_
 62
     7
100
AcDbMText
 10
416.7992989472256
 20
1111.52226165553
 30
0.0
 40
7.0
 41
0.0
 71
     2
 72
     1
  1
Diritti riservati     All rights reserved
  7
CONVERTER_11
 73
     1
 44
0.75727272727273
  0
ENDBLK
  5
4C
330
4A
100
AcDbEntity
  8
0
100
AcDbBlockEnd
  0
BLOCK
  5
230
330
227
100
AcDbEntity
  8
0
100
AcDbBlockBegin
  2
*D2
 70
     1
 10
0.0
 20
0.0
 30
0.0
  3
*D2
  1

  0
LINE
  5
228
330
227
100
AcDbEntity
  8
1
  6
Continuous
 62
     2
100
AcDbLine
 10
284.6268844880092
 20
969.0859895201357
 30
0.0
 11
348.36819892388
 21
969.0859895201357
 31
0.0
  0
LINE
  5
229
330
227
100
AcDbEntity
  8
1
  6
Continuous
 62
     2
100
AcDbLine
 10
368.96819892388
 20
969.0859895201357
 30
0.0
 11
432.7095133597509
 21
969.0859895201357
 31
0.0
  0
LINE
  5
22A
330
227
100
AcDbEntity
  8
1
  6
Continuous
 62
     2
100
AcDbLine
 10
284.6268844880092
 20
1029.575981865618
 30
0.0
 11
284.6268844880092
 21
967.0859895201357
 31
0.0
  0
LINE
  5
22B
330
227
100
AcDbEntity
  8
1
  6
Continuous
 62
     2
100
AcDbLine
 10
432.7095133597509
 20
991.0846972515754
 30
0.0
 11
432.7095133597509
 21
967.0859895201357
 31
0.0
  0
SOLID
  5
22C
330
227
100
AcDbEntity
  8
1
 62
     2
100
AcDbTrace
 10
290.6268844880092
 20
969.8759045056601
 30
0.0
 11
290.6268844880092
 21
968.2960745346114
 31
0.0
 12
284.6268844880092
 22
969.0859895201357
 32
0.0
 13
284.6268844880092
 23
969.0859895201357
 33
0.0
  0
SOLID
  5
22D
330
227
100
AcDbEntity
  8
1
 62
     2
100
AcDbTrace
 10
426.7095133597509
 20
968.2960745346114
 30
0.0
 11
426.7095133597509
 21
969.8759045056601
 31
0.0
 12
432.7095133597509
 22
969.0859895201357
 32
0.0
 13
432.7095133597509
 23
969.0859895201357
 33
0.0
  0
MTEXT
  5
22F
330
227
100
AcDbEntity
  8
1
 62
     4
100
AcDbMText
 10
352.36819892388
 20
966.0859895201357
 30
0.0
 40
6.0
 41
0.0
 71
     7
 72
     1
  1
148
  7
CONVERTER_15
 11
0.9999999999970619
 21
2.424068405545306E-6
 31
0.0
 73
     1
 44
0.60024009603842
  0
ENDBLK
  5
231
330
227
100
AcDbEntity
  8
0
100
AcDbBlockEnd
  0
BLOCK
  5
23C
330
234
100
AcDbEntity
  8
0
100
AcDbBlockBegin
  2
*D3
 70
     1
 10
0.0
 20
0.0
 30
0.0
  3
*D3
  1

  0
LINE
  5
235
330
234
100
AcDbEntity
  8
1
  6
Continuous
 62
     2
100
AcDbLine
 10
448.076660665695
 20
892.745009400404
 30
0.0
 11
448.076660665695
 21
904.745009400404
 31
0.0
  0
LINE
  5
236
330
234
100
AcDbEntity
  8
1
  6
Continuous
 62
     2
100
AcDbLine
 10
448.076660665695
 20
866.2450121893645
 30
0.0
 11
448.076660665695
 21
854.2450121893645
 31
0.0
  0
LINE
  5
237
330
234
100
AcDbEntity
  8
1
  6
Continuous
 62
     2
100
AcDbLine
 10
404.8770517153397
 20
892.745009400404
 30
0.0
 11
450.076660665695
 21
892.745009400404
 31
0.0
  0
LINE
  5
238
330
234
100
AcDbEntity
  8
1
  6
Continuous
 62
     2
100
AcDbLine
 10
404.6599210621388
 20
866.2450121893645
 30
0.0
 11
450.076660665695
 21
866.2450121893645
 31
0.0
  0
SOLID
  5
239
330
234
100
AcDbEntity
  8
1
 62
     2
100
AcDbTrace
 10
447.2867456801706
 20
898.745009400404
 30
0.0
 11
448.8665756512194
 21
898.745009400404
 31
0.0
 12
448.076660665695
 22
892.745009400404
 32
0.0
 13
448.076660665695
 23
892.745009400404
 33
0.0
  0
SOLID
  5
23A
330
234
100
AcDbEntity
  8
1
 62
     2
100
AcDbTrace
 10
448.8665756512194
 20
860.2450121893645
 30
0.0
 11
447.2867456801706
 21
860.2450121893645
 31
0.0
 12
448.076660665695
 22
866.2450121893645
 32
0.0
 13
448.076660665695
 23
866.2450121893645
 33
0.0
  0
MTEXT
  5
23B
330
234
100
AcDbEntity
  8
1
 62
     4
100
AcDbMText
 10
451.076660665695
 20
874.9950107948841
 30
0.0
 40
6.0
 41
0.0
 71
     7
 72
     1
  1
27
  7
CONVERTER_15
 11
0.0
 21
1.0
 31
0.0
 73
     1
 44
0.60024009603842
  0
ENDBLK
  5
23D
330
234
100
AcDbEntity
  8
0
100
AcDbBlockEnd
  0
BLOCK
  5
248
330
240
100
AcDbEntity
  8
0
100
AcDbBlockBegin
  2
*D4
 70
     1
 10
0.0
 20
0.0
 30
0.0
  3
*D4
  1

  0
LINE
  5
241
330
240
100
AcDbEntity
  8
1
  6
Continuous
 62
     2
100
AcDbLine
 10
524.1249881088936
 20
1043.984218393904
 30
0.0
 11
524.1249881088936
 21
1022.535103957018
 31
0.0
  0
LINE
  5
242
330
240
100
AcDbEntity
  8
1
  6
Continuous
 62
     2
100
AcDbLine
 10
524.1249881088936
 20
1005.535103957018
 30
0.0
 11
524.1249881088936
 21
984.0859895201322
 31
0.0
  0
LINE
  5
243
330
240
100
AcDbEntity
  8
1
  6
Continuous
 62
     2
100
AcDbLine
 10
537.8992989472256
 20
1043.984218393904
 30
0.0
 11
522.1249881088936
 21
1043.984218393904
 31
0.0
  0
LINE
  5
244
330
240
100
AcDbEntity
  8
1
  6
Continuous
 62
     2
100
AcDbLine
 10
537.8992989472256
 20
984.0859895201322
 30
0.0
 11
522.1249881088936
 21
984.0859895201322
 31
0.0
  0
SOLID
  5
245
330
240
100
AcDbEntity
  8
1
 62
     2
100
AcDbTrace
 10
524.9149030944179
 20
1037.984218393904
 30
0.0
 11
523.3350731233693
 21
1037.984218393904
 31
0.0
 12
524.1249881088936
 22
1043.984218393904
 32
0.0
 13
524.1249881088936
 23
1043.984218393904
 33
0.0
  0
SOLID
  5
246
330
240
100
AcDbEntity
  8
1
 62
     2
100
AcDbTrace
 10
523.3350731233693
 20
990.0859895201322
 30
0.0
 11
524.9149030944179
 21
990.0859895201322
 31
0.0
 12
524.1249881088936
 22
984.0859895201322
 32
0.0
 13
524.1249881088936
 23
984.0859895201322
 33
0.0
  0
MTEXT
  5
247
330
240
100
AcDbEntity
  8
1
 62
     4
100
AcDbMText
 10
527.1249881088936
 20
1009.535103957018
 30
0.0
 40
6.0
 41
0.0
 71
     7
 72
     1
  1
60
  7
CONVERTER_15
 11
0.0
 21
1.0
 31
0.0
 73
     1
 44
0.60024009603842
  0
ENDBLK
  5
249
330
240
100
AcDbEntity
  8
0
100
AcDbBlockEnd
  0
ENDSEC
  0
SECTION
  2
ENTITIES
  0
INSERT
  5
6F
330
1F
100
AcDbEntity
  8
0
100
AcDbBlockReference
  2
Ränder_Ilme_Rahmen_A4_quer
 10
114.8992989472256
 20
718.69250149546
 30
0.0
  0
LINE
  5
77
330
1F
100
AcDbEntity
  8
0
  6
Continuous
 62
     7
100
AcDbLine
 10
303.4915989244032
 20
885.745009400404
 30
0.0
 11
286.4915989244032
 21
885.745009400404
 31
0.0
  0
LINE
  5
78
330
1F
100
AcDbEntity
  8
0
  6
Continuous
 62
     2
100
AcDbLine
 10
317.1340747473562
 20
991.7971398008756
 30
0.0
 11
316.6269469197262
 21
991.290011576728
 31
0.0
  0
LINE
  5
79
330
1F
100
AcDbEntity
  8
0
  6
Continuous
 62
     2
100
AcDbLine
 10
407.2054913059978
 20
997.7860519510504
 30
0.0
 11
407.2054913059949
 21
1030.284155962993
 31
0.0
  0
LINE
  5
7A
330
1F
100
AcDbEntity
  8
0
  6
Continuous
 62
     7
100
AcDbLine
 10
313.4749461329432
 20
984.0859895201357
 30
0.0
 11
424.7108056283119
 21
984.0859895201357
 31
0.0
  0
LINE
  5
7B
330
1F
100
AcDbEntity
  8
0
  6
Continuous
 62
     2
100
AcDbLine
 10
400.202322454159
 20
991.7971400516416
 30
0.0
 11
400.7094509605799
 21
991.2900115452294
 31
0.0
  0
LINE
  5
7C
330
1F
100
AcDbEntity
  8
0
  6
Continuous
 62
     2
100
AcDbLine
 10
406.6761290097099
 20
998.3154142473383
 30
0.0
 11
407.2054913059978
 21
997.7860519510504
 31
0.0
  0
LINE
  5
7D
330
1F
100
AcDbEntity
  8
0
  6
Continuous
 62
     2
100
AcDbLine
 10
313.4749461329432
 20
985.0859895201357
 30
0.0
 11
424.7108056283119
 21
985.0859895201357
 31
0.0
  0
LINE
  5
7E
330
1F
100
AcDbEntity
  8
0
  6
Continuous
 62
     2
100
AcDbLine
 10
431.7095133597509
 20
992.0846972515754
 30
0.0
 11
432.7095133597509
 21
992.0846972515754
 31
0.0
  0
LINE
  5
7F
330
1F
100
AcDbEntity
  8
0
  6
Continuous
 62
     2
100
AcDbLine
 10
431.7095133597509
 20
997.4942017966345
 30
0.0
 11
432.7095133597509
 21
997.4942017966345
 31
0.0
  0
LINE
  5
80
330
1F
100
AcDbEntity
  8
0
  6
Continuous
 62
     2
100
AcDbLine
 10
431.7095133597509
 20
992.0846972515754
 30
0.0
 11
431.7095133597509
 21
997.4942017966345
 31
0.0
  0
LINE
  5
81
330
1F
100
AcDbEntity
  8
0
  6
Continuous
 62
     7
100
AcDbLine
 10
432.7095133597509
 20
992.0846972515754
 30
0.0
 11
432.7095133597509
 21
997.4942017966345
 31
0.0
  0
LINE
  5
82
330
1F
100
AcDbEntity
  8
0
  6
Continuous
 62
     7
100
AcDbLine
 10
420.8577906056339
 20
1005.492909796635
 30
0.0
 11
424.710805359751
 21
1005.492909796635
 31
0.0
  0
LINE
  5
83
330
1F
100
AcDbEntity
  8
0
  6
Continuous
 62
     2
100
AcDbLine
 10
420.8577906056339
 20
1004.492909796635
 30
0.0
 11
424.710805359751
 21
1004.492909796635
 31
0.0
  0
LINE
  5
84
330
1F
100
AcDbEntity
  8
0
  6
Continuous
 62
     2
100
AcDbLine
 10
424.7108056283119
 20
985.0859895201357
 30
0.0
 11
424.7108056283119
 21
984.0859895201357
 31
0.0
  0
LINE
  5
85
330
1F
100
AcDbEntity
  8
0
  6
Continuous
 62
     2
100
AcDbLine
 10
424.710805359751
 20
1004.492909796635
 30
0.0
 11
424.710805359751
 21
1005.492909796635
 31
0.0
  0
LINE
  5
86
330
1F
100
AcDbEntity
  8
0
  6
Continuous
 62
     2
100
AcDbLine
 10
420.8577906056339
 20
1004.492909796635
 30
0.0
 11
420.8577906056339
 21
1005.492909796635
 31
0.0
  0
LINE
  5
87
330
1F
100
AcDbEntity
  8
0
  6
Continuous
 62
     2
100
AcDbLine
 10
403.644321023585
 20
1010.635103957077
 30
0.0
 11
403.644321022538
 21
1017.435103956969
 31
0.0
  0
LINE
  5
88
330
1F
100
AcDbEntity
  8
0
  6
Continuous
 62
     2
100
AcDbLine
 10
313.6920768252121
 20
1017.435103956969
 30
0.0
 11
313.6920768262592
 21
1010.635103957077
 31
0.0
  0
LINE
  5
89
330
1F
100
AcDbEntity
  8
0
  6
Continuous
 62
     7
100
AcDbLine
 10
414.8595133602739
 20
1032.986156748975
 30
0.0
 11
414.8595133602739
 21
1011.491187041995
 31
0.0
  0
LINE
  5
8A
330
1F
100
AcDbEntity
  8
0
  6
Continuous
 62
     2
100
AcDbLine
 10
413.8595133602739
 20
1032.986156748975
 30
0.0
 11
413.8595133602739
 21
1011.491187041995
 31
0.0
  0
LINE
  5
8B
330
1F
100
AcDbEntity
  8
0
  6
Continuous
 62
     2
100
AcDbLine
 10
406.6424935294999
 20
1010.634835571231
 30
0.0
 11
406.6424941005698
 21
1017.435400125049
 31
0.0
  0
LINE
  5
8C
330
1F
100
AcDbEntity
  8
0
  6
Continuous
 62
     7
100
AcDbLine
 10
403.861451715341
 20
1043.984218393908
 30
0.0
 11
292.6255922194482
 21
1043.984218393908
 31
0.0
  0
LINE
  5
8D
330
1F
100
AcDbEntity
  8
0
  6
Continuous
 62
     2
100
AcDbLine
 10
285.6268844880092
 20
1030.575981865618
 30
0.0
 11
284.6268844880092
 21
1030.575981865618
 31
0.0
  0
LINE
  5
8E
330
1F
100
AcDbEntity
  8
0
  6
Continuous
 62
     2
100
AcDbLine
 10
285.6268844880092
 20
1035.985510662469
 30
0.0
 11
284.6268844880092
 21
1035.985510662469
 31
0.0
  0
LINE
  5
8F
330
1F
100
AcDbEntity
  8
0
  6
Continuous
 62
     2
100
AcDbLine
 10
317.1340752987571
 20
1033.875636774809
 30
0.0
 11
400.2014009310469
 21
1033.875632611765
 31
0.0
  0
LINE
  5
90
330
1F
100
AcDbEntity
  8
0
  6
Continuous
 62
     2
100
AcDbLine
 10
403.861451715341
 20
1042.984218393908
 30
0.0
 11
292.6255922194482
 21
1042.984218393908
 31
0.0
  0
LINE
  5
91
330
1F
100
AcDbEntity
  8
0
  6
Continuous
 62
     2
100
AcDbLine
 10
317.1340753993272
 20
1036.27306785403
 30
0.0
 11
400.2023227043378
 21
1036.273068112585
 31
0.0
  0
LINE
  5
92
330
1F
100
AcDbEntity
  8
0
  6
Continuous
 62
     2
100
AcDbLine
 10
400.709451326341
 20
1036.780196336835
 30
0.0
 11
396.7254929244018
 21
1036.780196337641
 31
0.0
  0
LINE
  5
93
330
1F
100
AcDbEntity
  8
0
  6
Continuous
 62
     2
100
AcDbLine
 10
396.7254929244018
 20
1036.780196337641
 30
0.0
 11
316.626946918426
 21
1036.780196338617
 31
0.0
  0
LINE
  5
94
330
1F
100
AcDbEntity
  8
0
  6
Continuous
 62
     2
100
AcDbLine
 10
400.7094566867979
 20
1037.279889976625
 30
0.0
 11
396.7254929244018
 21
1037.279890961227
 31
0.0
  0
LINE
  5
95
330
1F
100
AcDbEntity
  8
0
  6
Continuous
 62
     2
100
AcDbLine
 10
396.7254929244018
 20
1037.279890961227
 30
0.0
 11
316.6269459839302
 21
1037.279891956892
 31
0.0
  0
LINE
  5
96
330
1F
100
AcDbEntity
  8
0
  6
Continuous
 62
     2
100
AcDbLine
 10
400.2023227043378
 20
1036.273068112585
 30
0.0
 11
400.709451326341
 21
1036.780196336835
 31
0.0
  0
LINE
  5
97
330
1F
100
AcDbEntity
  8
0
  6
Continuous
 62
     2
100
AcDbLine
 10
406.676129154208
 20
1029.754793811205
 30
0.0
 11
407.2054913059949
 21
1030.284155962993
 31
0.0
  0
LINE
  5
98
330
1F
100
AcDbEntity
  8
0
  6
Continuous
 62
     2
100
AcDbLine
 10
285.6268844880092
 20
1035.985510662469
 30
0.0
 11
285.6268844880092
 21
1030.575981865618
 31
0.0
  0
LINE
  5
99
330
1F
100
AcDbEntity
  8
0
  6
Continuous
 62
     7
100
AcDbLine
 10
284.6268844880092
 20
1035.985510662469
 30
0.0
 11
284.6268844880092
 21
1030.575981865618
 31
0.0
  0
LINE
  5
9A
330
1F
100
AcDbEntity
  8
0
  6
Continuous
 62
     2
100
AcDbLine
 10
303.4768844880091
 20
1016.578996888817
 30
0.0
 11
302.4768844880091
 21
1016.578996888817
 31
0.0
  0
LINE
  5
9B
330
1F
100
AcDbEntity
  8
0
  6
Continuous
 62
     2
100
AcDbLine
 10
317.1340753993272
 20
1036.27306785403
 30
0.0
 11
316.626946918426
 21
1036.780196338617
 31
0.0
  0
LINE
  5
9C
330
1F
100
AcDbEntity
  8
0
  6
Continuous
 62
     2
100
AcDbLine
 10
309.6312125677321
 20
1030.28416110941
 30
0.0
 11
309.6312109634521
 21
997.7860511940362
 31
0.0
  0
LINE
  5
9D
330
1F
100
AcDbEntity
  8
0
  6
Continuous
 62
     2
100
AcDbLine
 10
292.6255922194482
 20
1042.984218393908
 30
0.0
 11
292.6255922194482
 21
1043.984218393908
 31
0.0
  0
LINE
  5
9E
330
1F
100
AcDbEntity
  8
0
  6
Continuous
 62
     2
100
AcDbLine
 10
292.6255922194482
 20
1023.577274134179
 30
0.0
 11
292.6255922194482
 21
1022.577274134179
 31
0.0
  0
LINE
  5
9F
330
1F
100
AcDbEntity
  8
0
  6
Continuous
 62
     7
100
AcDbLine
 10
302.4768844880091
 20
1016.578996888817
 30
0.0
 11
302.4768844880091
 21
995.0840511650689
 31
0.0
  0
LINE
  5
A0
330
1F
100
AcDbEntity
  8
0
  6
Continuous
 62
     7
100
AcDbLine
 10
292.6255922194482
 20
1022.577274134179
 30
0.0
 11
296.4786072426482
 21
1022.577274134179
 31
0.0
  0
LINE
  5
A1
330
1F
100
AcDbEntity
  8
0
  6
Continuous
 62
     2
100
AcDbLine
 10
296.4786072426482
 20
1023.577274134179
 30
0.0
 11
296.4786072426482
 21
1022.577274134179
 31
0.0
  0
LINE
  5
A2
330
1F
100
AcDbEntity
  8
0
  6
Continuous
 62
     2
100
AcDbLine
 10
292.6255922194482
 20
1023.577274134179
 30
0.0
 11
296.4786072426482
 21
1023.577274134179
 31
0.0
  0
LINE
  5
A3
330
1F
100
AcDbEntity
  8
0
  6
Continuous
 62
     2
100
AcDbLine
 10
310.6602688408511
 20
1029.754794061997
 30
0.0
 11
310.1309059800672
 21
1030.28415547869
 31
0.0
  0
LINE
  5
A4
330
1F
100
AcDbEntity
  8
0
  6
Continuous
 62
     2
100
AcDbLine
 10
310.1309059800672
 20
1030.28415547869
 30
0.0
 11
310.1309065428022
 21
997.7860519510532
 31
0.0
  0
LINE
  5
A5
330
1F
100
AcDbEntity
  8
0
  6
Continuous
 62
     2
100
AcDbLine
 10
310.6602686942251
 20
998.3154141024764
 30
0.0
 11
310.1309065428022
 21
997.7860519510532
 31
0.0
  0
LINE
  5
A6
330
1F
100
AcDbEntity
  8
0
  6
Continuous
 62
     2
100
AcDbLine
 10
303.4768844880091
 20
1016.578996888817
 30
0.0
 11
303.4768844880091
 21
995.0840511650689
 31
0.0
  0
LINE
  5
A7
330
1F
100
AcDbEntity
  8
0
  6
Continuous
 62
     2
100
AcDbLine
 10
313.4749461329432
 20
985.0859895201357
 30
0.0
 11
313.4749461329432
 21
984.0859895201357
 31
0.0
  0
LINE
  5
A8
330
1F
100
AcDbEntity
  8
0
  6
Continuous
 62
     2
100
AcDbLine
 10
310.6939043192972
 20
1017.435372342729
 30
0.0
 11
310.6939043348571
 21
1010.634835578231
 31
0.0
  0
LINE
  5
A9
330
1F
100
AcDbEntity
  8
0
  6
Continuous
 62
     2
100
AcDbLine
 10
317.1340747473562
 20
991.7971398008756
 30
0.0
 11
400.202322454159
 21
991.7971400516416
 31
0.0
  0
LINE
  5
AA
330
1F
100
AcDbEntity
  8
0
  6
Continuous
 62
     2
100
AcDbLine
 10
400.7094572830079
 20
990.7903179374282
 30
0.0
 11
316.6269411619981
 21
990.7903179374208
 31
0.0
  0
LINE
  5
AB
330
1F
100
AcDbEntity
  8
0
  6
Continuous
 62
     2
100
AcDbLine
 10
400.7094509605799
 20
991.2900115452294
 30
0.0
 11
316.6269469197262
 21
991.290011576728
 31
0.0
  0
LINE
  5
AC
330
1F
100
AcDbEntity
  8
0
  6
Continuous
 62
     2
100
AcDbLine
 10
303.4768844880091
 20
995.0840511650689
 30
0.0
 11
302.4768844880091
 21
995.0840511650689
 31
0.0
  0
LINE
  5
AD
330
1F
100
AcDbEntity
  8
0
  6
Continuous
 62
     2
100
AcDbLine
 10
317.1349966696782
 20
994.1945753355711
 30
0.0
 11
400.2023460895839
 21
994.1945711749138
 31
0.0
  0
LINE
  5
AE
330
1F
100
AcDbEntity
  8
0
  6
Continuous
 62
     2
100
AcDbLine
 10
413.8595133602739
 20
1032.986156748975
 30
0.0
 11
414.8595133602739
 21
1032.986156748975
 31
0.0
  0
LINE
  5
AF
330
1F
100
AcDbEntity
  8
0
  6
Continuous
 62
     2
100
AcDbLine
 10
403.861451715341
 20
1042.984218393908
 30
0.0
 11
403.861451715341
 21
1043.984218393908
 31
0.0
  0
LINE
  5
B0
330
1F
100
AcDbEntity
  8
0
  6
Continuous
 62
     2
100
AcDbLine
 10
414.8595133602739
 20
1011.491187041995
 30
0.0
 11
413.8595133602739
 21
1011.491187041995
 31
0.0
  0
LINE
  5
B1
330
1F
100
AcDbEntity
  8
0
  6
Continuous
 62
     2
100
AcDbLine
 10
407.7051868853439
 20
997.7860511940312
 30
0.0
 11
407.7051869002148
 21
1030.284206883994
 31
0.0
  0
LINE
  5
B2
330
1F
100
AcDbEntity
  8
0
  6
Continuous
 62
     7
100
AcDbLine
 10
297.0638526784082
 20
880.7450094004039
 30
0.0
 11
287.4915989244032
 21
880.7450094004039
 31
0.0
  0
LINE
  5
B3
330
1F
100
AcDbEntity
  8
0
  6
Continuous
 62
     7
100
AcDbLine
 10
303.4915989244032
 20
885.745009400404
 30
0.0
 11
303.4915989244032
 21
881.745009400404
 31
0.0
  0
LINE
  5
B4
330
1F
100
AcDbEntity
  8
0
  6
Continuous
 62
     2
100
AcDbLine
 10
303.4915989244032
 20
881.745009400404
 30
0.0
 11
286.4915989244032
 21
881.745009400404
 31
0.0
  0
LINE
  5
B5
330
1F
100
AcDbEntity
  8
0
  6
Continuous
 62
     7
100
AcDbLine
 10
286.4915989244032
 20
885.745009400404
 30
0.0
 11
286.4915989244032
 21
881.745009400404
 31
0.0
  0
LINE
  5
B6
330
1F
100
AcDbEntity
  8
0
  6
Continuous
 62
     7
100
AcDbLine
 10
286.4915989244032
 20
885.745009400404
 30
0.0
 11
285.6424844880091
 21
885.745009400404
 31
0.0
  0
LINE
  5
B7
330
1F
100
AcDbEntity
  8
0
  6
Continuous
 62
     7
100
AcDbLine
 10
284.6424844880091
 20
886.745009400404
 30
0.0
 11
284.6424844880091
 21
888.4229126770371
 31
0.0
  0
LINE
  5
B8
330
1F
100
AcDbEntity
  8
0
  6
Continuous
 62
     7
100
AcDbLine
 10
292.6411922194482
 20
892.745009400404
 30
0.0
 11
284.6424844880091
 21
892.745009400404
 31
0.0
  0
LINE
  5
B9
330
1F
100
AcDbEntity
  8
0
  6
Continuous
 62
     7
100
AcDbLine
 10
284.6424844880091
 20
892.745009400404
 30
0.0
 11
284.6424844880091
 21
888.4229126770371
 31
0.0
  0
LINE
  5
BA
330
1F
100
AcDbEntity
  8
0
  6
Continuous
 62
     7
100
AcDbLine
 10
403.8770517153398
 20
892.745009400404
 30
0.0
 11
292.6411922194482
 21
892.745009400404
 31
0.0
  0
LINE
  5
BB
330
1F
100
AcDbEntity
  8
0
  6
Continuous
 62
     2
100
AcDbLine
 10
292.6411922194482
 20
888.9341692996373
 30
0.0
 11
292.6411922230602
 21
886.745009400404
 31
0.0
  0
LINE
  5
BC
330
1F
100
AcDbEntity
  8
0
  6
Continuous
 62
     2
100
AcDbLine
 10
292.6411922194482
 20
892.745009400404
 30
0.0
 11
292.6411922194482
 21
888.9341692996373
 31
0.0
  0
LINE
  5
BD
330
1F
100
AcDbEntity
  8
0
  6
Continuous
 62
     2
100
AcDbLine
 10
403.8770517153398
 20
886.745009400404
 30
0.0
 11
284.6424844880091
 21
886.745009400404
 31
0.0
  0
LINE
  5
BE
330
1F
100
AcDbEntity
  8
0
  6
Continuous
 62
     7
100
AcDbLine
 10
316.642545983929
 20
885.7450094004131
 30
0.0
 11
309.6468125677282
 21
885.745009400404
 31
0.0
  0
LINE
  5
BF
330
1F
100
AcDbEntity
  8
0
  6
Continuous
 62
     7
100
AcDbLine
 10
309.6468125677282
 20
885.745009400404
 30
0.0
 11
303.4915989244032
 21
885.745009400404
 31
0.0
  0
LINE
  5
C0
330
1F
100
AcDbEntity
  8
0
  6
Continuous
 62
     2
100
AcDbLine
 10
400.7250503328928
 20
885.2624590945179
 30
0.0
 11
396.741092924402
 21
885.2624591279764
 31
0.0
  0
LINE
  5
C1
330
1F
100
AcDbEntity
  8
0
  6
Continuous
 62
     2
100
AcDbLine
 10
396.741092924402
 20
885.2624591279764
 30
0.0
 11
316.6425468487892
 21
885.262459190705
 31
0.0
  0
LINE
  5
C2
330
1F
100
AcDbEntity
  8
0
  6
Continuous
 62
     7
100
AcDbLine
 10
400.725057282976
 20
885.7450094003973
 30
0.0
 11
316.642545983929
 21
885.7450094004131
 31
0.0
  0
LINE
  5
C3
330
1F
100
AcDbEntity
  8
0
  6
Continuous
 62
     7
100
AcDbLine
 10
313.707676918229
 20
866.2450094171761
 30
0.0
 11
403.6599210621389
 21
866.2450121893644
 31
0.0
  0
LINE
  5
C4
330
1F
100
AcDbEntity
  8
0
  6
Continuous
 62
     7
100
AcDbLine
 10
302.4915989244032
 20
880.7450094004039
 30
0.0
 11
297.0638526784082
 21
880.7450094004039
 31
0.0
  0
LINE
  5
C5
330
1F
100
AcDbEntity
  8
0
  6
Continuous
 62
     2
100
AcDbLine
 10
317.1496752987571
 20
867.9056939490619
 30
0.0
 11
400.217000931046
 21
867.9056930982408
 31
0.0
  0
LINE
  5
C6
330
1F
100
AcDbEntity
  8
0
  6
Continuous
 62
     2
100
AcDbLine
 10
400.2179231003688
 20
870.7402068144108
 30
0.0
 11
400.7250503328928
 21
885.2624590945179
 31
0.0
  0
LINE
  5
C7
330
1F
100
AcDbEntity
  8
0
  6
Continuous
 62
     7
100
AcDbLine
 10
310.7095043192962
 20
869.1403122304971
 30
0.0
 11
310.6758688403681
 21
870.1035063243885
 31
0.0
  0
LINE
  5
C8
330
1F
100
AcDbEntity
  8
0
  6
Continuous
 62
     7
100
AcDbLine
 10
429.875998923716
 20
880.7450094004039
 30
0.0
 11
424.0386551385179
 21
880.7450094004039
 31
0.0
  0
LINE
  5
C9
330
1F
100
AcDbEntity
  8
0
  6
Continuous
 62
     7
100
AcDbLine
 10
431.725113359752
 20
885.745009400404
 30
0.0
 11
430.875998923716
 21
885.745009400404
 31
0.0
  0
LINE
  5
CA
330
1F
100
AcDbEntity
  8
0
  6
Continuous
 62
     7
100
AcDbLine
 10
430.875998923716
 20
885.745009400404
 30
0.0
 11
430.875998923716
 21
881.745009400404
 31
0.0
  0
LINE
  5
CB
330
1F
100
AcDbEntity
  8
0
  6
Continuous
 62
     7
100
AcDbLine
 10
424.5345571486798
 20
886.745009400404
 30
0.0
 11
424.726405624936
 21
886.745009400404
 31
0.0
  0
LINE
  5
CC
330
1F
100
AcDbEntity
  8
0
  6
Continuous
 62
     7
100
AcDbLine
 10
420.8733906056339
 20
892.745009400404
 30
0.0
 11
424.726405359751
 21
892.745009400404
 31
0.0
  0
LINE
  5
CD
330
1F
100
AcDbEntity
  8
0
  6
Continuous
 62
     2
100
AcDbLine
 10
424.726405359751
 20
892.745009400404
 30
0.0
 11
424.726405359751
 21
887.0053963894483
 31
0.0
  0
LINE
  5
CE
330
1F
100
AcDbEntity
  8
0
  6
Continuous
 62
     2
100
AcDbLine
 10
420.8733906056339
 20
886.745009400404
 30
0.0
 11
432.725113359752
 21
886.745009400404
 31
0.0
  0
LINE
  5
CF
330
1F
100
AcDbEntity
  8
0
  6
Continuous
 62
     2
100
AcDbLine
 10
424.726405359751
 20
887.0053963894483
 30
0.0
 11
424.726405624936
 21
886.745009400404
 31
0.0
  0
LINE
  5
D0
330
1F
100
AcDbEntity
  8
0
  6
Continuous
 62
     2
100
AcDbLine
 10
418.3759989237169
 20
881.745009400404
 30
0.0
 11
413.8759989237169
 21
881.745009400404
 31
0.0
  0
LINE
  5
D1
330
1F
100
AcDbEntity
  8
0
  6
Continuous
 62
     7
100
AcDbLine
 10
413.875113360273
 20
885.745009400404
 30
0.0
 11
413.8759989237169
 21
881.745009400404
 31
0.0
  0
LINE
  5
D2
330
1F
100
AcDbEntity
  8
0
  6
Continuous
 62
     2
100
AcDbLine
 10
420.8733906056339
 20
885.745009400404
 30
0.0
 11
420.8733906056339
 21
886.745009400404
 31
0.0
  0
LINE
  5
D3
330
1F
100
AcDbEntity
  8
0
  6
Continuous
 62
     2
100
AcDbLine
 10
420.8733906056339
 20
886.745009400404
 30
0.0
 11
420.8733906056339
 21
892.745009400404
 31
0.0
  0
LINE
  5
D4
330
1F
100
AcDbEntity
  8
0
  6
Continuous
 62
     7
100
AcDbLine
 10
420.8733906056339
 20
892.745009400404
 30
0.0
 11
414.875113360273
 21
892.745009400404
 31
0.0
  0
LINE
  5
D5
330
1F
100
AcDbEntity
  8
0
  6
Continuous
 62
     2
100
AcDbLine
 10
420.8733906056339
 20
886.745009400404
 30
0.0
 11
414.875113360273
 21
886.745009400404
 31
0.0
  0
LINE
  5
D6
330
1F
100
AcDbEntity
  8
0
  6
Continuous
 62
     2
100
AcDbLine
 10
430.875998923716
 20
881.7450094003955
 30
0.0
 11
418.3759989237169
 21
881.745009400404
 31
0.0
  0
LINE
  5
D7
330
1F
100
AcDbEntity
  8
0
  6
Continuous
 62
     7
100
AcDbLine
 10
418.8465871590108
 20
880.7450094004039
 30
0.0
 11
414.8759989237169
 21
880.7450094004039
 31
0.0
  0
LINE
  5
D8
330
1F
100
AcDbEntity
  8
0
  6
Continuous
 62
     7
100
AcDbLine
 10
420.8733906056339
 20
885.745009400404
 30
0.0
 11
430.875998923716
 21
885.745009400404
 31
0.0
  0
LINE
  5
D9
330
1F
100
AcDbEntity
  8
0
  6
Continuous
 62
     7
100
AcDbLine
 10
424.0386551385179
 20
880.7450094004039
 30
0.0
 11
418.8465871590108
 21
880.7450094004039
 31
0.0
  0
LINE
  5
DA
330
1F
100
AcDbEntity
  8
0
  6
Continuous
 62
     7
100
AcDbLine
 10
414.875113360273
 20
892.745009400404
 30
0.0
 11
403.8770517153398
 21
892.745009400404
 31
0.0
  0
LINE
  5
DB
330
1F
100
AcDbEntity
  8
0
  6
Continuous
 62
     2
100
AcDbLine
 10
403.8770517153398
 20
892.745009400404
 30
0.0
 11
403.8770517153398
 21
886.745009400404
 31
0.0
  0
LINE
  5
DC
330
1F
100
AcDbEntity
  8
0
  6
Continuous
 62
     7
100
AcDbLine
 10
414.875113360273
 20
892.745009400404
 30
0.0
 11
414.875113360273
 21
886.745009400404
 31
0.0
  0
LINE
  5
DD
330
1F
100
AcDbEntity
  8
0
  6
Continuous
 62
     2
100
AcDbLine
 10
414.875113360273
 20
886.745009400404
 30
0.0
 11
403.8770517153398
 21
886.745009400404
 31
0.0
  0
LINE
  5
DE
330
1F
100
AcDbEntity
  8
0
  6
Continuous
 62
     7
100
AcDbLine
 10
413.875113360273
 20
885.745009400404
 30
0.0
 11
407.7207868853438
 21
885.745009400404
 31
0.0
  0
LINE
  5
DF
330
1F
100
AcDbEntity
  8
0
  6
Continuous
 62
     7
100
AcDbLine
 10
407.7207868853438
 20
885.745009400404
 30
0.0
 11
403.8770517153398
 21
885.745009400404
 31
0.0
  0
LINE
  5
E0
330
1F
100
AcDbEntity
  8
0
  6
Continuous
 62
     2
100
AcDbLine
 10
403.8770517153398
 20
885.745009400404
 30
0.0
 11
403.8770517153398
 21
886.745009400404
 31
0.0
  0
LINE
  5
E1
330
1F
100
AcDbEntity
  8
0
  6
Continuous
 62
     7
100
AcDbLine
 10
403.8770517153398
 20
885.745009400404
 30
0.0
 11
400.725057282976
 21
885.7450094003973
 31
0.0
  0
LINE
  5
E2
330
1F
100
AcDbEntity
  8
0
  6
Continuous
 62
     7
100
AcDbLine
 10
420.8733906056339
 20
885.745009400404
 30
0.0
 11
413.875113360273
 21
885.745009400404
 31
0.0
  0
LINE
  5
E3
330
1F
100
AcDbEntity
  8
0
  6
Continuous
 62
     2
100
AcDbLine
 10
317.1496753993272
 20
870.7401994243254
 30
0.0
 11
400.2179231003688
 21
870.7402068144108
 31
0.0
  0
LINE
  5
E4
330
1F
100
AcDbEntity
  8
0
  6
Continuous
 62
     2
100
AcDbLine
 10
317.1496753993272
 20
870.7401994243254
 30
0.0
 11
316.6425468487892
 21
885.262459190705
 31
0.0
  0
LINE
  5
E5
330
1F
100
AcDbEntity
  8
0
  6
Continuous
 62
     7
100
AcDbLine
 10
310.6758688403681
 20
870.1035063243885
 30
0.0
 11
310.1464669024542
 21
885.2635943069575
 31
0.0
  0
LINE
  5
E6
330
1F
100
AcDbEntity
  8
0
  6
Continuous
 62
     7
100
AcDbLine
 10
432.725113359752
 20
892.745009400404
 30
0.0
 11
432.725113359752
 21
888.3507643172829
 31
0.0
  0
LINE
  5
E7
330
1F
100
AcDbEntity
  8
0
  6
Continuous
 62
     7
100
AcDbLine
 10
406.691729154207
 20
870.1035104989547
 30
0.0
 11
406.658093529501
 21
869.1403122305336
 31
0.0
  0
LINE
  5
E8
330
1F
100
AcDbEntity
  8
0
  6
Continuous
 62
     7
100
AcDbLine
 10
406.691729154207
 20
870.1035104989547
 30
0.0
 11
407.2210913072129
 21
885.2624591908016
 31
0.0
  0
LINE
  5
E9
330
1F
100
AcDbEntity
  8
0
  6
Continuous
 62
     7
100
AcDbLine
 10
432.725113359752
 20
888.3507643172829
 30
0.0
 11
432.725113359752
 21
886.745009400404
 31
0.0
  0
LINE
  5
EA
330
1F
100
AcDbEntity
  8
0
  6
Continuous
 62
     7
100
AcDbLine
 10
432.725113359752
 20
892.745009400404
 30
0.0
 11
424.726405359751
 21
892.745009400404
 31
0.0
  0
LINE
  5
EB
330
1F
100
AcDbEntity
  8
0
  6
Continuous
 62
     7
100
AcDbLine
 10
538.8992989472256
 20
984.0859895201316
 30
0.0
 11
538.8992989472256
 21
995.0840511650647
 31
0.0
  0
LINE
  5
EC
330
1F
100
AcDbEntity
  8
0
  6
Continuous
 62
     7
100
AcDbLine
 10
538.8992989472256
 20
1030.575981865614
 30
0.0
 11
538.8992989472256
 21
1022.577274134174
 31
0.0
  0
LINE
  5
ED
330
1F
100
AcDbEntity
  8
0
  6
Continuous
 62
     7
100
AcDbLine
 10
538.8992989472256
 20
1035.985510662465
 30
0.0
 11
538.8992989472256
 21
1030.575981865614
 31
0.0
  0
LINE
  5
EE
330
1F
100
AcDbEntity
  8
0
  6
Continuous
 62
     7
100
AcDbLine
 10
538.8992989472256
 20
1016.578996888813
 30
0.0
 11
538.8992989472256
 21
995.0840511650647
 31
0.0
  0
LINE
  5
EF
330
1F
100
AcDbEntity
  8
0
  6
Continuous
 62
     7
100
AcDbLine
 10
565.3992961582646
 20
1017.435103956965
 30
0.0
 11
565.3992961582646
 21
1010.635103957073
 31
0.0
  0
LINE
  5
F0
330
1F
100
AcDbEntity
  8
0
  6
Continuous
 62
     7
100
AcDbLine
 10
544.8992989472256
 20
984.0859895201316
 30
0.0
 11
538.8992989472256
 21
984.0859895201316
 31
0.0
  0
LINE
  5
F1
330
1F
100
AcDbEntity
  8
0
  6
Continuous
 62
     7
100
AcDbLine
 10
560.9041014885727
 20
991.7971398003848
 30
0.0
 11
546.3818492289006
 21
991.2900115767239
 31
0.0
  0
LINE
  5
F2
330
1F
100
AcDbEntity
  8
0
  6
Continuous
 62
     7
100
AcDbLine
 10
550.8992989472256
 20
1037.283024216974
 30
0.0
 11
550.8992989472256
 21
1026.185103957017
 31
0.0
  0
LINE
  5
F3
330
1F
100
AcDbEntity
  8
0
  6
Continuous
 62
     2
100
AcDbLine
 10
549.8992989472256
 20
1037.762746918301
 30
0.0
 11
549.8992989472256
 21
1025.185103957017
 31
0.0
  0
LINE
  5
F4
330
1F
100
AcDbEntity
  8
0
  6
Continuous
 62
     7
100
AcDbLine
 10
545.8992989472256
 20
1042.185103957017
 30
0.0
 11
549.8992989472256
 21
1042.185103957017
 31
0.0
  0
LINE
  5
F5
330
1F
100
AcDbEntity
  8
0
  6
Continuous
 62
     2
100
AcDbLine
 10
549.8992989472256
 20
1042.185103957017
 30
0.0
 11
549.8992989472256
 21
1037.762746918301
 31
0.0
  0
LINE
  5
F6
330
1F
100
AcDbEntity
  8
0
  6
Continuous
 62
     7
100
AcDbLine
 10
550.8992989472256
 20
1041.185103957017
 30
0.0
 11
550.8992989472256
 21
1037.283024216974
 31
0.0
  0
LINE
  5
F7
330
1F
100
AcDbEntity
  8
0
  6
Continuous
 62
     7
100
AcDbLine
 10
545.8992989472256
 20
1030.575981865614
 30
0.0
 11
545.8992989472256
 21
1025.185103957017
 31
0.0
  0
LINE
  5
F8
330
1F
100
AcDbEntity
  8
0
  6
Continuous
 62
     2
100
AcDbLine
 10
545.8992989472256
 20
1030.575981865614
 30
0.0
 11
544.8992989472256
 21
1030.575981865614
 31
0.0
  0
LINE
  5
F9
330
1F
100
AcDbEntity
  8
0
  6
Continuous
 62
     2
100
AcDbLine
 10
538.8992989472256
 20
1035.985510662465
 30
0.0
 11
544.8992989472256
 21
1035.985510662465
 31
0.0
  0
LINE
  5
FA
330
1F
100
AcDbEntity
  8
0
  6
Continuous
 62
     7
100
AcDbLine
 10
545.8992989472256
 20
1035.985510662465
 30
0.0
 11
545.8992989472256
 21
1030.575981865614
 31
0.0
  0
LINE
  5
FB
330
1F
100
AcDbEntity
  8
0
  6
Continuous
 62
     7
100
AcDbLine
 10
560.9041088177617
 20
1036.273067857712
 30
0.0
 11
550.8992989472256
 21
1036.622443517009
 31
0.0
  0
LINE
  5
FC
330
1F
100
AcDbEntity
  8
0
  6
Continuous
 62
     2
100
AcDbLine
 10
561.5407978472208
 20
998.3154139689558
 30
0.0
 11
546.3818491917027
 21
997.786051951049
 31
0.0
  0
LINE
  5
FD
330
1F
100
AcDbEntity
  8
0
  6
Continuous
 62
     7
100
AcDbLine
 10
538.8992989472256
 20
1043.984218393904
 30
0.0
 11
538.8992989472256
 21
1035.985510662465
 31
0.0
  0
LINE
  5
FE
330
1F
100
AcDbEntity
  8
0
  6
Continuous
 62
     7
100
AcDbLine
 10
538.8992989472256
 20
1043.984218393904
 30
0.0
 11
544.8992989472256
 21
1043.984218393904
 31
0.0
  0
LINE
  5
FF
330
1F
100
AcDbEntity
  8
0
  6
Continuous
 62
     2
100
AcDbLine
 10
544.8992989472256
 20
1043.984218393904
 30
0.0
 11
544.8992989472256
 21
1035.985510662465
 31
0.0
  0
LINE
  5
100
330
1F
100
AcDbEntity
  8
0
  6
Continuous
 62
     7
100
AcDbLine
 10
545.8992989472256
 20
1025.185103957017
 30
0.0
 11
545.8992989472256
 21
1023.577274134174
 31
0.0
  0
LINE
  5
101
330
1F
100
AcDbEntity
  8
0
  6
Continuous
 62
     7
100
AcDbLine
 10
545.8992989472256
 20
1042.984218393904
 30
0.0
 11
545.8992989472256
 21
1042.185103957017
 31
0.0
  0
LINE
  5
102
330
1F
100
AcDbEntity
  8
0
  6
Continuous
 62
     7
100
AcDbLine
 10
545.8992989472256
 20
1042.185103957017
 30
0.0
 11
545.8992989472256
 21
1035.985510662465
 31
0.0
  0
LINE
  5
103
330
1F
100
AcDbEntity
  8
0
  6
Continuous
 62
     2
100
AcDbLine
 10
545.8992989472256
 20
1016.578996888813
 30
0.0
 11
544.8992989472256
 21
1016.578996888813
 31
0.0
  0
LINE
  5
104
330
1F
100
AcDbEntity
  8
0
  6
Continuous
 62
     2
100
AcDbLine
 10
545.8992989472256
 20
1035.985510662465
 30
0.0
 11
544.8992989472256
 21
1035.985510662465
 31
0.0
  0
LINE
  5
105
330
1F
100
AcDbEntity
  8
0
  6
Continuous
 62
     2
100
AcDbLine
 10
544.8992989472256
 20
1035.985510662465
 30
0.0
 11
544.8992989472256
 21
1030.575981865614
 31
0.0
  0
LINE
  5
106
330
1F
100
AcDbEntity
  8
0
  6
Continuous
 62
     2
100
AcDbLine
 10
544.8992989472256
 20
1030.575981865614
 30
0.0
 11
544.8992989472256
 21
1022.577274134174
 31
0.0
  0
LINE
  5
107
330
1F
100
AcDbEntity
  8
0
  6
Continuous
 62
     2
100
AcDbLine
 10
544.8992989472256
 20
1016.578996888813
 30
0.0
 11
544.8992989472256
 21
995.0840511650647
 31
0.0
  0
LINE
  5
108
330
1F
100
AcDbEntity
  8
0
  6
Continuous
 62
     7
100
AcDbLine
 10
545.8992989472256
 20
1023.577274134174
 30
0.0
 11
545.8992989472256
 21
1016.578996888813
 31
0.0
  0
LINE
  5
109
330
1F
100
AcDbEntity
  8
0
  6
Continuous
 62
     2
100
AcDbLine
 10
546.3818492230637
 20
1025.185103957017
 30
0.0
 11
546.3818491917027
 21
997.786051951049
 31
0.0
  0
LINE
  5
10A
330
1F
100
AcDbEntity
  8
0
  6
Continuous
 62
     7
100
AcDbLine
 10
545.8992989472256
 20
1016.578996888813
 30
0.0
 11
545.8992989472197
 21
997.786051194032
 31
0.0
  0
LINE
  5
10B
330
1F
100
AcDbEntity
  8
0
  6
Continuous
 62
     7
100
AcDbLine
 10
545.8992989472256
 20
985.0859895201316
 30
0.0
 11
545.8992989472256
 21
986.1850777728661
 31
0.0
  0
LINE
  5
10C
330
1F
100
AcDbEntity
  8
0
  6
Continuous
 62
     7
100
AcDbLine
 10
545.8992989472256
 20
986.1850777728661
 30
0.0
 11
545.8992989472256
 21
990.7903179374165
 31
0.0
  0
LINE
  5
10D
330
1F
100
AcDbEntity
  8
0
  6
Continuous
 62
     7
100
AcDbLine
 10
545.8992989472256
 20
990.7903179374165
 30
0.0
 11
545.8992989472256
 21
995.0840511650647
 31
0.0
  0
LINE
  5
10E
330
1F
100
AcDbEntity
  8
0
  6
Continuous
 62
     2
100
AcDbLine
 10
545.8992989472256
 20
995.0840511650647
 30
0.0
 11
544.8992989472256
 21
995.0840511650647
 31
0.0
  0
LINE
  5
10F
330
1F
100
AcDbEntity
  8
0
  6
Continuous
 62
     2
100
AcDbLine
 10
544.8992989472256
 20
984.0859895201316
 30
0.0
 11
544.8992989472256
 21
995.0840511650647
 31
0.0
  0
LINE
  5
110
330
1F
100
AcDbEntity
  8
0
  6
Continuous
 62
     7
100
AcDbLine
 10
545.8992989472256
 20
1025.185103957017
 30
0.0
 11
549.8992989472256
 21
1025.185103957017
 31
0.0
  0
LINE
  5
111
330
1F
100
AcDbEntity
  8
0
  6
Continuous
 62
     7
100
AcDbLine
 10
538.8992989472256
 20
1022.577274134174
 30
0.0
 11
538.8992989472256
 21
1016.578996888813
 31
0.0
  0
LINE
  5
112
330
1F
100
AcDbEntity
  8
0
  6
Continuous
 62
     2
100
AcDbLine
 10
544.8992989472256
 20
1022.577274134174
 30
0.0
 11
544.8992989472256
 21
1016.578996888813
 31
0.0
  0
LINE
  5
113
330
1F
100
AcDbEntity
  8
0
  6
Continuous
 62
     2
100
AcDbLine
 10
538.8992989472256
 20
1030.575981865614
 30
0.0
 11
544.8992989472256
 21
1030.575981865614
 31
0.0
  0
LINE
  5
114
330
1F
100
AcDbEntity
  8
0
  6
Continuous
 62
     7
100
AcDbLine
 10
538.8992989472256
 20
1022.577274134174
 30
0.0
 11
544.8992989472256
 21
1022.577274134174
 31
0.0
  0
LINE
  5
115
330
1F
100
AcDbEntity
  8
0
  6
Continuous
 62
     2
100
AcDbLine
 10
544.8992989472256
 20
1016.578996888813
 30
0.0
 11
538.8992989472256
 21
1016.578996888813
 31
0.0
  0
LINE
  5
116
330
1F
100
AcDbEntity
  8
0
  6
Continuous
 62
     2
100
AcDbLine
 10
561.5408034119787
 20
1029.754793884402
 30
0.0
 11
550.8992989472256
 21
1030.126403141386
 31
0.0
  0
LINE
  5
117
330
1F
100
AcDbEntity
  8
0
  6
Continuous
 62
     2
100
AcDbLine
 10
562.5039961171326
 20
1017.435372342725
 30
0.0
 11
562.5039961385937
 21
1010.634807788993
 31
0.0
  0
LINE
  5
118
330
1F
100
AcDbEntity
  8
0
  6
Continuous
 62
     7
100
AcDbLine
 10
550.8992989472256
 20
991.4477643970281
 30
0.0
 11
550.8992989472256
 21
987.1850777728661
 31
0.0
  0
LINE
  5
119
330
1F
100
AcDbEntity
  8
0
  6
Continuous
 62
     7
100
AcDbLine
 10
545.8992989472256
 20
986.1850777728661
 30
0.0
 11
549.8992989472256
 21
986.1850777728661
 31
0.0
  0
LINE
  5
11A
330
1F
100
AcDbEntity
  8
0
  6
Continuous
 62
     2
100
AcDbLine
 10
549.8992989472256
 20
991.4128436275363
 30
0.0
 11
549.8992989472256
 21
986.1850777728661
 31
0.0
  0
LINE
  5
11B
330
1F
100
AcDbEntity
  8
0
  6
Continuous
 62
     2
100
AcDbLine
 10
544.8992989472256
 20
995.0840511650647
 30
0.0
 11
538.8992989472256
 21
995.0840511650647
 31
0.0
  0
LINE
  5
11C
330
1F
100
AcDbEntity
  8
0
  6
Continuous
 62
     7
100
AcDbLine
 10
545.8992989472197
 20
997.786051194032
 30
0.0
 11
545.8992989472256
 21
995.0840511650647
 31
0.0
  0
LINE
  5
11D
330
1F
100
AcDbEntity
  8
1
  6
DOT_CENTER
 62
     2
100
AcDbLine
 10
545.8992989472256
 20
1033.685103957017
 30
0.0
 11
549.8992989472256
 21
1033.685103957017
 31
0.0
  0
LINE
  5
11E
330
1F
100
AcDbEntity
  8
0
  6
Continuous
 62
     2
100
AcDbLine
 10
323.9722096298108
 20
1030.285639693209
 30
0.0
 11
332.3733133059361
 21
1025.48352954615
 31
0.0
  0
LINE
  5
11F
330
1F
100
AcDbEntity
  8
0
  6
Continuous
 62
     2
100
AcDbLine
 10
323.642012512694
 20
1020.39258191685
 30
0.0
 11
315.2410005299341
 21
1025.194532437252
 31
0.0
  0
LINE
  5
120
330
1F
100
AcDbEntity
  8
0
  6
Continuous
 62
     2
100
AcDbLine
 10
332.3733133059361
 20
1025.194693652031
 30
0.0
 11
323.9722096298108
 21
1020.392583504971
 31
0.0
  0
LINE
  5
121
330
1F
100
AcDbEntity
  8
0
  6
Continuous
 62
     2
100
AcDbLine
 10
331.9555598144741
 20
1025.33911159909
 30
0.0
 11
323.8071096820602
 21
1029.996803799091
 31
0.0
  0
LINE
  5
122
330
1F
100
AcDbEntity
  8
0
  6
Continuous
 62
     2
100
AcDbLine
 10
323.8071096820602
 20
1020.681419399091
 30
0.0
 11
331.9555598144741
 21
1025.33911159909
 31
0.0
  0
LINE
  5
123
330
1F
100
AcDbEntity
  8
0
  6
Continuous
 62
     2
100
AcDbLine
 10
327.9656710944848
 20
1023.633231090652
 30
0.0
 11
326.63490189447
 21
1022.872613410502
 31
0.0
  0
LINE
  5
124
330
1F
100
AcDbEntity
  8
0
  6
Continuous
 62
     2
100
AcDbLine
 10
326.8013403820598
 20
1023.734162956095
 30
0.0
 11
327.6331634696501
 21
1024.209577640345
 31
0.0
  0
LINE
  5
125
330
1F
100
AcDbEntity
  8
0
  6
Continuous
 62
     2
100
AcDbLine
 10
326.8013403820598
 20
1025.006419299091
 30
0.0
 11
326.8013403820598
 21
1023.734162956095
 31
0.0
  0
LINE
  5
126
330
1F
100
AcDbEntity
  8
0
  6
Continuous
 62
     2
100
AcDbLine
 10
326.8013403820598
 20
1025.006419299091
 30
0.0
 11
327.7994172820588
 21
1025.006419299091
 31
0.0
  0
LINE
  5
127
330
1F
100
AcDbEntity
  8
0
  6
Continuous
 62
     2
100
AcDbLine
 10
323.8071096820602
 20
1026.63853514303
 30
0.0
 11
324.8497588986159
 21
1028.444456560578
 31
0.0
  0
LINE
  5
128
330
1F
100
AcDbEntity
  8
0
  6
Continuous
 62
     2
100
AcDbLine
 10
326.8013403820598
 20
1025.671803899091
 30
0.0
 11
327.7994172820588
 21
1025.671803899091
 31
0.0
  0
LINE
  5
129
330
1F
100
AcDbEntity
  8
0
  6
Continuous
 62
     2
100
AcDbLine
 10
327.633163469646
 20
1026.46858934023
 30
0.0
 11
326.8013403820598
 21
1026.94406330692
 31
0.0
  0
LINE
  5
12A
330
1F
100
AcDbEntity
  8
0
  6
Continuous
 62
     2
100
AcDbLine
 10
326.6349018944718
 20
1027.805609787678
 30
0.0
 11
327.9656710944498
 21
1027.044935889941
 31
0.0
  0
LINE
  5
12B
330
1F
100
AcDbEntity
  8
0
  6
Continuous
 62
     2
100
AcDbLine
 10
324.8051865820601
 20
1027.036485843691
 30
0.0
 11
324.8051865820601
 21
1022.400112787603
 31
0.0
  0
LINE
  5
12C
330
1F
100
AcDbEntity
  8
0
  6
Continuous
 62
     2
100
AcDbLine
 10
326.135955782059
 20
1027.517436512828
 30
0.0
 11
326.135955782059
 21
1023.160786685353
 31
0.0
  0
LINE
  5
12D
330
1F
100
AcDbEntity
  8
0
  6
Continuous
 62
     2
100
AcDbLine
 10
324.8051865820601
 20
1027.036485843691
 30
0.0
 11
323.951169673782
 21
1025.55728516803
 31
0.0
  0
LINE
  5
12E
330
1F
100
AcDbEntity
  8
0
  6
Continuous
 62
     2
100
AcDbLine
 10
326.8013403820598
 20
1026.94406330692
 30
0.0
 11
326.8013403820598
 21
1025.671803899091
 31
0.0
  0
LINE
  5
12F
330
1F
100
AcDbEntity
  8
0
  6
Continuous
 62
     2
100
AcDbLine
 10
325.47057118206
 20
1028.278110410578
 30
0.0
 11
325.47057118206
 21
1022.400112787603
 31
0.0
  0
LINE
  5
130
330
1F
100
AcDbEntity
  8
0
  6
Continuous
 62
     2
100
AcDbLine
 10
323.8071096820602
 20
1029.996803799091
 30
0.0
 11
315.658477617241
 21
1025.33911159909
 31
0.0
  0
LINE
  5
131
330
1F
100
AcDbEntity
  8
0
  6
Continuous
 62
     2
100
AcDbLine
 10
322.764460465504
 20
1028.444456560578
 30
0.0
 11
323.8071096820602
 21
1026.63853514303
 31
0.0
  0
LINE
  5
132
330
1F
100
AcDbEntity
  8
0
  6
Continuous
 62
     2
100
AcDbLine
 10
323.663049690337
 20
1025.55728516803
 30
0.0
 11
322.8090327820589
 21
1027.036485843691
 31
0.0
  0
LINE
  5
133
330
1F
100
AcDbEntity
  8
0
  6
Continuous
 62
     2
100
AcDbLine
 10
323.308163569646
 20
1021.541421496524
 30
0.0
 11
321.1457559572298
 21
1022.777436202974
 31
0.0
  0
LINE
  5
134
330
1F
100
AcDbEntity
  8
0
  6
Continuous
 62
     2
100
AcDbLine
 10
321.47826358206
 20
1023.353782752671
 30
0.0
 11
323.640671194499
 21
1022.117768046207
 31
0.0
  0
LINE
  5
135
330
1F
100
AcDbEntity
  8
0
  6
Continuous
 62
     2
100
AcDbLine
 10
315.658477617241
 20
1025.33911159909
 30
0.0
 11
323.8071096820602
 21
1020.681419399091
 31
0.0
  0
LINE
  5
136
330
1F
100
AcDbEntity
  8
0
  6
Continuous
 62
     2
100
AcDbLine
 10
322.143648182059
 20
1028.278110410578
 30
0.0
 11
322.143648182059
 21
1023.921404365494
 31
0.0
  0
LINE
  5
137
330
1F
100
AcDbEntity
  8
0
  6
Continuous
 62
     2
100
AcDbLine
 10
322.8090327820589
 20
1027.036485843691
 30
0.0
 11
322.8090327820589
 21
1023.921404365494
 31
0.0
  0
LINE
  5
138
330
1F
100
AcDbEntity
  8
0
  6
Continuous
 62
     2
100
AcDbLine
 10
320.1474943820601
 20
1026.756818832687
 30
0.0
 11
320.1474943820601
 21
1023.921404365494
 31
0.0
  0
LINE
  5
139
330
1F
100
AcDbEntity
  8
0
  6
Continuous
 62
     2
100
AcDbLine
 10
319.4821097820598
 20
1026.756818832687
 30
0.0
 11
319.4821097820598
 21
1023.921404365494
 31
0.0
  0
LINE
  5
13A
330
1F
100
AcDbEntity
  8
0
  6
Continuous
 62
     2
100
AcDbLine
 10
321.47826358206
 20
1027.524570294225
 30
0.0
 11
321.47826358206
 21
1023.353782752671
 31
0.0
  0
LINE
  5
13B
330
1F
100
AcDbEntity
  8
0
  6
Continuous
 62
     2
100
AcDbLine
 10
320.8128789820601
 20
1027.524570294225
 30
0.0
 11
320.8128789820601
 21
1023.353782752672
 31
0.0
  0
LINE
  5
13C
330
1F
100
AcDbEntity
  8
0
  6
Continuous
 62
     2
100
AcDbLine
 10
315.2410005299341
 20
1025.48369076093
 30
0.0
 11
323.642012512694
 21
1030.28564128133
 31
0.0
  0
LWPOLYLINE
  5
13D
330
1F
100
AcDbEntity
  8
Skizziergeometrie_ISO_
  6
Continuous
 62
     7
100
AcDbPolyline
 90
        2
 70
     0
 43
0.5
 10
328.8992989472251
 20
808.6925014954597
 10
328.8992989472251
 20
738.6925014954597
  0
LWPOLYLINE
  5
13E
330
1F
100
AcDbEntity
  8
Skizziergeometrie_ISO_
  6
Continuous
 62
     7
100
AcDbPolyline
 90
        2
 70
     0
 43
0.5
 10
668.2492881213732
 20
747.2673583273709
 10
668.2492881213732
 20
757.1982933399529
  0
LWPOLYLINE
  5
13F
330
1F
100
AcDbEntity
  8
Skizziergeometrie_ISO_
  6
Continuous
 62
     7
100
AcDbPolyline
 90
        2
 70
     0
 43
0.5
 10
668.2492881213732
 20
757.1982933399529
 10
666.5379740818191
 20
754.2342104757415
  0
LWPOLYLINE
  5
140
330
1F
100
AcDbEntity
  8
Skizziergeometrie_ISO_
  6
Continuous
 62
     7
100
AcDbPolyline
 90
        2
 70
     0
 43
0.5
 10
665.9606238126314
 20
754.2342104757415
 10
664.2493097730774
 20
757.1982933399529
  0
LWPOLYLINE
  5
141
330
1F
100
AcDbEntity
  8
Skizziergeometrie_ISO_
  6
Continuous
 62
     7
100
AcDbPolyline
 90
        2
 70
     0
 43
0.5
 10
664.2493097730774
 20
757.1982933399529
 10
664.2493097730774
 20
750.3859627135865
  0
LWPOLYLINE
  5
142
330
1F
100
AcDbEntity
  8
Skizziergeometrie_ISO_
  6
Continuous
 62
     7
100
AcDbPolyline
 90
        2
 70
     0
 43
0.5
 10
649.4164283969433
 20
753.9812300241423
 10
666.249298947225
 20
763.6925014954613
  0
LWPOLYLINE
  5
143
330
1F
100
AcDbEntity
  8
Skizziergeometrie_ISO_
  6
Continuous
 62
     7
100
AcDbPolyline
 90
        2
 70
     0
 43
0.5
 10
666.249298947225
 20
763.6925014954613
 10
683.0821694975073
 20
753.9812300241423
  0
LWPOLYLINE
  5
144
330
1F
100
AcDbEntity
  8
Skizziergeometrie_ISO_
  6
Continuous
 62
     7
100
AcDbPolyline
 90
        2
 70
     0
 43
0.5
 10
683.0821694975073
 20
753.4037729667771
 10
666.249298947225
 20
743.6925014954581
  0
LWPOLYLINE
  5
145
330
1F
100
AcDbEntity
  8
Skizziergeometrie_ISO_
  6
Continuous
 62
     7
100
AcDbPolyline
 90
        2
 70
     0
 43
0.5
 10
666.249298947225
 20
743.6925014954581
 10
649.4164283969433
 20
753.4037729667771
  0
LWPOLYLINE
  5
146
330
1F
100
AcDbEntity
  8
Skizziergeometrie_ISO_
  6
Continuous
 62
     7
100
AcDbPolyline
 90
        2
 70
     0
 43
0.5
 10
662.9159764397452
 20
750.3859627135865
 10
662.9159764397434
 20
760.1966174288215
  0
LWPOLYLINE
  5
147
330
1F
100
AcDbEntity
  8
Skizziergeometrie_ISO_
  6
Continuous
 62
     7
100
AcDbPolyline
 90
        2
 70
     0
 43
0.5
 10
663.9048438069915
 20
760.4615836412967
 10
666.249298947225
 20
756.4008682223451
  0
LWPOLYLINE
  5
148
330
1F
100
AcDbEntity
  8
Skizziergeometrie_ISO_
  6
Continuous
 62
     7
100
AcDbPolyline
 90
        2
 70
     0
 43
0.5
 10
669.5826214547071
 20
747.2673583273709
 10
669.5826214547071
 20
760.1966174288214
  0
LWPOLYLINE
  5
149
330
1F
100
AcDbEntity
  8
Skizziergeometrie_ISO_
  6
Continuous
 62
     7
100
AcDbPolyline
 90
        2
 70
     0
 43
0.5
 10
668.5937540874595
 20
760.4615836412967
 10
666.249298947225
 20
756.4008682223451
  0
LWPOLYLINE
  5
14A
330
1F
100
AcDbEntity
  8
Skizziergeometrie_ISO_
  6
Continuous
 62
     7
100
AcDbPolyline
 90
        2
 70
     0
 43
0.5
 10
660.2493009648313
 20
749.2325451711837
 10
660.2493009648313
 20
758.5791780434059
  0
LWPOLYLINE
  5
14B
330
1F
100
AcDbEntity
  8
Skizziergeometrie_ISO_
  6
Continuous
 62
     7
100
AcDbPolyline
 90
        2
 70
     0
 43
0.5
 10
661.5826342981652
 20
758.5791780434059
 10
661.5826342981652
 20
749.2325426275213
  0
LWPOLYLINE
  5
14C
330
1F
100
AcDbEntity
  8
Skizziergeometrie_ISO_
  6
Continuous
 62
     7
100
AcDbPolyline
 90
        2
 70
     0
 43
0.5
 10
661.5826342981652
 20
749.2325426275213
 10
665.9179069107911
 20
746.7314238125435
  0
LWPOLYLINE
  5
14D
330
1F
100
AcDbEntity
  8
Skizziergeometrie_ISO_
  6
Continuous
 62
     7
100
AcDbPolyline
 90
        2
 70
     0
 43
0.5
 10
665.2516103061391
 20
745.576509697812
 10
660.9163398967951
 20
748.0776272416643
  0
LWPOLYLINE
  5
14E
330
1F
100
AcDbEntity
  8
Skizziergeometrie_ISO_
  6
Continuous
 62
     7
100
AcDbPolyline
 90
        2
 70
     0
 43
0.5
 10
658.9159656138911
 20
756.9990402773329
 10
658.9159656138911
 20
750.3859627135865
  0
LWPOLYLINE
  5
14F
330
1F
100
AcDbEntity
  8
Skizziergeometrie_ISO_
  6
Continuous
 62
     7
100
AcDbPolyline
 90
        2
 70
     0
 43
0.5
 10
657.5826322805594
 20
750.3859627135865
 10
657.5826322805594
 20
756.9990402773329
  0
LWPOLYLINE
  5
150
102
{ACAD_REACTORS
330
24F
102
}
330
1F
100
AcDbEntity
  8
Skizziergeometrie_ISO_
  6
Continuous
 62
     7
100
AcDbPolyline
 90
        2
 70
     0
 43
0.5
 10
671.9157785652794
 20
759.1566351007717
 10
674.6546840264712
 20
757.5764973346987
  0
LWPOLYLINE
  5
151
102
{ACAD_REACTORS
330
24F
102
}
330
1F
100
AcDbEntity
  8
Skizziergeometrie_ISO_
  6
Continuous
 62
     7
100
AcDbPolyline
 90
        2
 70
     0
 43
0.5
 10
673.9883874218192
 20
756.4215832199671
 10
672.2492969296193
 20
757.4249046577745
  0
LWPOLYLINE
  5
152
102
{ACAD_REACTORS
330
24F
102
}
330
1F
100
AcDbEntity
  8
Skizziergeometrie_ISO_
  6
Continuous
 62
     7
100
AcDbPolyline
 90
        2
 70
     0
 43
0.5
 10
672.2492969296193
 20
757.4249046577745
 10
672.2492969296193
 20
754.3591681621265
  0
LWPOLYLINE
  5
153
102
{ACAD_REACTORS
330
24F
102
}
330
1F
100
AcDbEntity
  8
Skizziergeometrie_ISO_
  6
Continuous
 62
     7
100
AcDbPolyline
 90
        2
 70
     0
 43
0.5
 10
672.2492969296193
 20
754.3591681621265
 10
674.3215357241454
 20
754.3591681621265
  0
LWPOLYLINE
  5
154
102
{ACAD_REACTORS
330
24F
102
}
330
1F
100
AcDbEntity
  8
Skizziergeometrie_ISO_
  6
Continuous
 62
     7
100
AcDbPolyline
 90
        2
 70
     0
 43
0.5
 10
674.3215357241454
 20
753.0258348287929
 10
672.2492969296193
 20
753.0258348287929
  0
LWPOLYLINE
  5
155
102
{ACAD_REACTORS
330
24F
102
}
330
1F
100
AcDbEntity
  8
Skizziergeometrie_ISO_
  6
Continuous
 62
     7
100
AcDbPolyline
 90
        2
 70
     0
 43
0.5
 10
672.2492969296193
 20
753.0258348287929
 10
672.2492969296193
 20
749.9600983331449
  0
LWPOLYLINE
  5
156
102
{ACAD_REACTORS
330
24F
102
}
330
1F
100
AcDbEntity
  8
Skizziergeometrie_ISO_
  6
Continuous
 62
     7
100
AcDbPolyline
 90
        2
 70
     0
 43
0.5
 10
672.2492969296193
 20
749.9600983331449
 10
673.9883874218192
 20
750.9634197709523
  0
LWPOLYLINE
  5
157
102
{ACAD_REACTORS
330
24F
102
}
330
1F
100
AcDbEntity
  8
Skizziergeometrie_ISO_
  6
Continuous
 62
     7
100
AcDbPolyline
 90
        2
 70
     0
 43
0.5
 10
674.6546840264712
 20
749.8085056562207
 10
671.9157785652794
 20
748.2283678901478
  0
LWPOLYLINE
  5
158
102
{ACAD_REACTORS
330
24F
102
}
330
1F
100
AcDbEntity
  8
Skizziergeometrie_ISO_
  6
Continuous
 62
     7
100
AcDbPolyline
 90
        2
 70
     0
 43
0.5
 10
670.9159635962853
 20
748.8058249475135
 10
670.9159635962853
 20
758.5791780434059
  0
LWPOLYLINE
  5
159
330
1F
100
AcDbEntity
  8
Skizziergeometrie_ISO_
  6
Continuous
 62
     7
100
AcDbPolyline
 90
        2
 70
     0
 43
0.5
 10
643.5992989472254
 20
768.6925014954597
 10
643.5992989472254
 20
738.6925014954597
  0
LWPOLYLINE
  5
15A
330
1F
100
AcDbEntity
  8
Skizziergeometrie_ISO_
  6
Continuous
 62
     7
100
AcDbPolyline
 90
        2
 70
     0
 43
0.5
 10
608.8992989472251
 20
768.6925014954597
 10
608.8992989472251
 20
738.6925014954597
  0
LWPOLYLINE
  5
15B
330
1F
100
AcDbEntity
  8
Skizziergeometrie_ISO_
  6
Continuous
 62
     7
100
AcDbPolyline
 90
        2
 70
     0
 43
0.5
 10
388.8992989472256
 20
738.6925014954597
 10
388.8992989472256
 20
768.6925014954597
  0
LWPOLYLINE
  5
15C
330
1F
100
AcDbEntity
  8
Skizziergeometrie_ISO_
  6
Continuous
 62
     7
100
AcDbPolyline
 90
        2
 70
     0
 43
0.5
 10
378.8992989472251
 20
808.6925014954597
 10
378.8992989472251
 20
768.6925014954597
  0
LWPOLYLINE
  5
15D
330
1F
100
AcDbEntity
  8
Skizziergeometrie_ISO_
  6
Continuous
 62
     7
100
AcDbPolyline
 90
        2
 70
     0
 43
0.5
 10
342.8992989472251
 20
808.6925014954597
 10
342.8992989472251
 20
768.6925014954597
  0
LWPOLYLINE
  5
15E
330
1F
100
AcDbEntity
  8
Skizziergeometrie_ISO_
  6
Continuous
 62
     7
100
AcDbPolyline
 90
        2
 70
     0
 43
0.5
 10
328.8992989472251
 20
753.6925014954597
 10
388.8992989472256
 20
753.6925014954597
  0
LWPOLYLINE
  5
15F
330
1F
100
AcDbEntity
  8
Skizziergeometrie_ISO_
  6
Continuous
 62
     7
100
AcDbPolyline
 90
        2
 70
     0
 43
0.5
 10
328.8992989472251
 20
768.6925014954597
 10
688.8992989472251
 20
768.6925014954597
  0
LWPOLYLINE
  5
160
330
1F
100
AcDbEntity
  8
Skizziergeometrie_ISO_
  6
Continuous
 62
     7
100
AcDbPolyline
 90
        2
 70
     0
 43
0.5
 10
328.8992989472251
 20
778.6925014954597
 10
688.8992989472251
 20
778.6925014954597
  0
LWPOLYLINE
  5
161
330
1F
100
AcDbEntity
  8
Skizziergeometrie_ISO_
  6
Continuous
 62
     7
100
AcDbPolyline
 90
        2
 70
     0
 43
0.5
 10
328.8992989472251
 20
788.6925014954597
 10
688.8992989472251
 20
788.6925014954597
  0
LWPOLYLINE
  5
162
330
1F
100
AcDbEntity
  8
Skizziergeometrie_ISO_
  6
Continuous
 62
     7
100
AcDbPolyline
 90
        2
 70
     0
 43
0.5
 10
328.8992989472251
 20
798.6925014954597
 10
688.8992989472251
 20
798.6925014954597
  0
LWPOLYLINE
  5
163
330
1F
100
AcDbEntity
  8
Skizziergeometrie_ISO_
  6
Continuous
 62
     7
100
AcDbPolyline
 90
        2
 70
     0
 43
0.5
 10
328.8992989472251
 20
808.6925014954597
 10
688.8992989472251
 20
808.6925014954597
  0
LINE
  5
164
330
1F
100
AcDbEntity
  8
0
  6
Continuous
 62
     7
100
AcDbLine
 10
674.6546840264712
 20
749.8085056562207
 30
0.0
 11
671.9157785652794
 21
748.2283678901478
 31
0.0
  0
LINE
  5
165
330
1F
100
AcDbEntity
  8
0
  6
Continuous
 62
     7
100
AcDbLine
 10
670.9159635962853
 20
748.8058249475135
 30
0.0
 11
670.9159635962853
 21
758.5791780434059
 31
0.0
  0
LINE
  5
166
330
1F
100
AcDbEntity
  8
0
  6
Continuous
 62
     7
100
AcDbLine
 10
671.9157785652794
 20
759.1566351007717
 30
0.0
 11
674.6546840264712
 21
757.5764973346987
 31
0.0
  0
LINE
  5
167
330
1F
100
AcDbEntity
  8
0
  6
Continuous
 62
     7
100
AcDbLine
 10
673.9883874218192
 20
756.4215832199671
 30
0.0
 11
672.2492969296193
 21
757.4249046577745
 31
0.0
  0
LINE
  5
168
330
1F
100
AcDbEntity
  8
0
  6
Continuous
 62
     7
100
AcDbLine
 10
672.2492969296193
 20
757.4249046577745
 30
0.0
 11
672.2492969296193
 21
754.3591681621265
 31
0.0
  0
LINE
  5
169
330
1F
100
AcDbEntity
  8
0
  6
Continuous
 62
     7
100
AcDbLine
 10
672.2492969296193
 20
754.3591681621265
 30
0.0
 11
674.3215357241454
 21
754.3591681621265
 31
0.0
  0
LINE
  5
16A
330
1F
100
AcDbEntity
  8
0
  6
Continuous
 62
     7
100
AcDbLine
 10
674.3215357241454
 20
753.0258348287929
 30
0.0
 11
672.2492969296193
 21
753.0258348287929
 31
0.0
  0
LINE
  5
16B
330
1F
100
AcDbEntity
  8
0
  6
Continuous
 62
     7
100
AcDbLine
 10
672.2492969296193
 20
753.0258348287929
 30
0.0
 11
672.2492969296193
 21
749.9600983331449
 31
0.0
  0
LINE
  5
16C
330
1F
100
AcDbEntity
  8
0
  6
Continuous
 62
     7
100
AcDbLine
 10
672.2492969296193
 20
749.9600983331449
 30
0.0
 11
673.9883874218192
 21
750.9634197709523
 31
0.0
  0
LINE
  5
16D
102
{ACAD_REACTORS
330
24E
102
}
330
1F
100
AcDbEntity
  8
0
  6
Continuous
 62
     7
100
AcDbLine
 10
662.9159764397434
 20
760.1966174288215
 30
0.0
 11
662.9159764397452
 21
750.3859627135865
 31
0.0
  0
LINE
  5
16E
102
{ACAD_REACTORS
330
24E
102
}
330
1F
100
AcDbEntity
  8
0
  6
Continuous
 62
     7
100
AcDbLine
 10
664.2493097730774
 20
750.3859627135865
 30
0.0
 11
664.2493097730774
 21
757.1982933399529
 31
0.0
  0
LINE
  5
16F
102
{ACAD_REACTORS
330
24E
102
}
330
1F
100
AcDbEntity
  8
0
  6
Continuous
 62
     7
100
AcDbLine
 10
664.2493097730774
 20
757.1982933399529
 30
0.0
 11
665.9606238126314
 21
754.2342104757415
 31
0.0
  0
LINE
  5
170
102
{ACAD_REACTORS
330
24E
102
}
330
1F
100
AcDbEntity
  8
0
  6
Continuous
 62
     7
100
AcDbLine
 10
666.5379740818191
 20
754.2342104757415
 30
0.0
 11
668.2492881213732
 21
757.1982933399529
 31
0.0
  0
LINE
  5
171
102
{ACAD_REACTORS
330
24E
102
}
330
1F
100
AcDbEntity
  8
0
  6
Continuous
 62
     7
100
AcDbLine
 10
668.2492881213732
 20
757.1982933399529
 30
0.0
 11
668.2492881213732
 21
747.2673583273709
 31
0.0
  0
LINE
  5
172
102
{ACAD_REACTORS
330
24E
102
}
330
1F
100
AcDbEntity
  8
0
  6
Continuous
 62
     7
100
AcDbLine
 10
669.5826214547071
 20
747.2673583273709
 30
0.0
 11
669.5826214547071
 21
760.1966174288214
 31
0.0
  0
LINE
  5
173
102
{ACAD_REACTORS
330
24E
102
}
330
1F
100
AcDbEntity
  8
0
  6
Continuous
 62
     7
100
AcDbLine
 10
668.5937540874595
 20
760.4615836412967
 30
0.0
 11
666.249298947225
 21
756.4008682223451
 31
0.0
  0
LINE
  5
174
102
{ACAD_REACTORS
330
24E
102
}
330
1F
100
AcDbEntity
  8
0
  6
Continuous
 62
     7
100
AcDbLine
 10
666.249298947225
 20
756.4008682223451
 30
0.0
 11
663.9048438069915
 21
760.4615836412967
 31
0.0
  0
LINE
  5
175
102
{ACAD_REACTORS
330
24D
102
}
330
1F
100
AcDbEntity
  8
0
  6
Continuous
 62
     7
100
AcDbLine
 10
661.5826342981652
 20
749.2325426275213
 30
0.0
 11
661.5826342981652
 21
758.5791780434059
 31
0.0
  0
LINE
  5
176
102
{ACAD_REACTORS
330
24D
102
}
330
1F
100
AcDbEntity
  8
0
  6
Continuous
 62
     7
100
AcDbLine
 10
660.2493009648313
 20
758.5791780434059
 30
0.0
 11
660.2493009648313
 21
749.2325451711837
 31
0.0
  0
LINE
  5
177
102
{ACAD_REACTORS
330
24D
102
}
330
1F
100
AcDbEntity
  8
0
  6
Continuous
 62
     7
100
AcDbLine
 10
660.9163398967951
 20
748.0776272416643
 30
0.0
 11
665.2516103061391
 21
745.576509697812
 31
0.0
  0
LINE
  5
178
102
{ACAD_REACTORS
330
24D
102
}
330
1F
100
AcDbEntity
  8
0
  6
Continuous
 62
     7
100
AcDbLine
 10
665.9179069107911
 20
746.7314238125435
 30
0.0
 11
661.5826342981652
 21
749.2325426275213
 31
0.0
  0
LINE
  5
179
102
{ACAD_REACTORS
330
24C
102
}
330
1F
100
AcDbEntity
  8
0
  6
Continuous
 62
     7
100
AcDbLine
 10
658.9159656138911
 20
756.9990402773329
 30
0.0
 11
658.9159656138911
 21
750.3859627135865
 31
0.0
  0
LINE
  5
17A
102
{ACAD_REACTORS
330
24C
102
}
330
1F
100
AcDbEntity
  8
0
  6
Continuous
 62
     7
100
AcDbLine
 10
657.5826322805594
 20
750.3859627135865
 30
0.0
 11
657.5826322805594
 21
756.9990402773329
 31
0.0
  0
ARC
  5
17B
330
1F
100
AcDbEntity
  8
0
  6
Continuous
 62
     2
100
AcDbCircle
 10
424.7108056283119
 20
992.0846972515754
 30
0.0
 40
6.998707731439708
100
AcDbArc
 50
270.0
 51
0.0
  0
ARC
  5
17C
330
1F
100
AcDbEntity
  8
0
  6
Continuous
 62
     2
100
AcDbCircle
 10
400.7100589011479
 20
997.7854439500866
 30
0.0
 40
6.495432433307308
100
AcDbArc
 50
269.9946373964861
 51
0.00536313626122
  0
ARC
  5
17D
330
1F
100
AcDbEntity
  8
0
  6
Continuous
 62
     2
100
AcDbCircle
 10
400.7100598870738
 20
997.7854449360146
 30
0.0
 40
6.995127024542487
100
AcDbArc
 50
269.9950641825926
 51
0.0049657462353
  0
ARC
  5
17E
330
1F
100
AcDbEntity
  8
0
  6
Continuous
 62
     7
100
AcDbCircle
 10
424.7108056283119
 20
992.0846972515754
 30
0.0
 40
7.998707731439708
100
AcDbArc
 50
270.0
 51
0.0
  0
ARC
  5
17F
330
1F
100
AcDbEntity
  8
0
  6
Continuous
 62
     2
100
AcDbCircle
 10
424.7108056248189
 20
997.4942020617018
 30
0.0
 40
6.998707734932003
100
AcDbArc
 50
359.9999978299937
 51
90.00000217001052
  0
ARC
  5
180
330
1F
100
AcDbEntity
  8
0
  6
Continuous
 62
     7
100
AcDbCircle
 10
424.7108056248189
 20
997.4942020617018
 30
0.0
 40
7.998707734932002
100
AcDbArc
 50
359.9999981012883
 51
90.00000189871537
  0
ARC
  5
181
330
1F
100
AcDbEntity
  8
0
  6
Continuous
 62
     2
100
AcDbCircle
 10
400.7100589164438
 20
1030.284763947246
 30
0.0
 40
6.495432418005284
100
AcDbArc
 50
359.9946370111323
 51
90.00535951209622
  0
ARC
  5
182
330
1F
100
AcDbEntity
  8
0
  6
Continuous
 62
     2
100
AcDbCircle
 10
400.7100598916909
 20
1030.284762972005
 30
0.0
 40
6.995127030627444
100
AcDbArc
 50
359.9954451869203
 51
90.0049407386657
  0
ARC
  5
183
330
1F
100
AcDbEntity
  8
0
  6
Continuous
 62
     2
100
AcDbCircle
 10
292.6255922194482
 20
1030.575981865618
 30
0.0
 40
6.998707731439026
100
AcDbArc
 50
180.0
 51
270.0
  0
ARC
  5
184
330
1F
100
AcDbEntity
  8
0
  6
Continuous
 62
     7
100
AcDbCircle
 10
292.6255922194482
 20
1030.575981865618
 30
0.0
 40
7.998707731439026
100
AcDbArc
 50
180.0
 51
270.0
  0
ARC
  5
185
330
1F
100
AcDbEntity
  8
0
  6
Continuous
 62
     2
100
AcDbCircle
 10
292.6255922194482
 20
1035.985510662469
 30
0.0
 40
6.998707731438799
100
AcDbArc
 50
90.0
 51
180.0
  0
ARC
  5
186
330
1F
100
AcDbEntity
  8
0
  6
Continuous
 62
     7
100
AcDbCircle
 10
292.6255922194482
 20
1035.985510662469
 30
0.0
 40
7.998707731438799
100
AcDbArc
 50
90.0
 51
180.0
  0
ARC
  5
187
330
1F
100
AcDbEntity
  8
0
  6
Continuous
 62
     7
100
AcDbCircle
 10
296.4786072426482
 20
1016.578996888817
 30
0.0
 40
5.998277245360896
100
AcDbArc
 50
0.0
 51
90.0
  0
ARC
  5
188
330
1F
100
AcDbEntity
  8
0
  6
Continuous
 62
     2
100
AcDbCircle
 10
316.6263386506812
 20
1030.284763668011
 30
0.0
 40
6.495432699086833
100
AcDbArc
 50
89.99463451070078
 51
180.0053647975276
  0
ARC
  5
189
330
1F
100
AcDbEntity
  8
0
  6
Continuous
 62
     2
100
AcDbCircle
 10
316.6263397537582
 20
1030.284764771088
 30
0.0
 40
6.995127212073355
100
AcDbArc
 50
89.99503448196711
 51
180.0049444799787
  0
ARC
  5
18A
330
1F
100
AcDbEntity
  8
0
  6
Continuous
 62
     2
100
AcDbCircle
 10
316.6263389326171
 20
997.7854439665426
 30
0.0
 40
6.495432418269118
100
AcDbArc
 50
179.9946370088591
 51
270.0053630140625
  0
ARC
  5
18B
330
1F
100
AcDbEntity
  8
0
  6
Continuous
 62
     2
100
AcDbCircle
 10
316.6263379624641
 20
997.7854449366965
 30
0.0
 40
6.995127025283744
100
AcDbArc
 50
179.9950342593095
 51
270.0049406947751
  0
ARC
  5
18C
330
1F
100
AcDbEntity
  8
0
  6
Continuous
 62
     2
100
AcDbCircle
 10
296.4786072426482
 20
1016.578996888817
 30
0.0
 40
6.998277245360896
100
AcDbArc
 50
0.0
 51
90.0
  0
ARC
  5
18D
330
1F
100
AcDbEntity
  8
0
  6
Continuous
 62
     2
100
AcDbCircle
 10
313.4749461329432
 20
995.0840511650689
 30
0.0
 40
9.998061644934126
100
AcDbArc
 50
180.0
 51
270.0
  0
ARC
  5
18E
330
1F
100
AcDbEntity
  8
0
  6
DASHED
 62
     3
100
AcDbCircle
 10
313.4749461329452
 20
995.0840511650655
 30
0.0
 40
10.29806164492703
100
AcDbArc
 50
179.999999976379
 51
270.0000000236236
  0
ARC
  5
18F
330
1F
100
AcDbEntity
  8
0
  6
Continuous
 62
     7
100
AcDbCircle
 10
313.4749461329432
 20
995.0840511650689
 30
0.0
 40
10.99806164493413
100
AcDbArc
 50
180.0
 51
270.0
  0
ARC
  5
190
330
1F
100
AcDbEntity
  8
0
  6
Continuous
 62
     2
100
AcDbCircle
 10
403.8614517110939
 20
1032.986156744729
 30
0.0
 40
9.998061649180045
100
AcDbArc
 50
0.00000002433237
 51
89.99999997566113
  0
ARC
  5
191
330
1F
100
AcDbEntity
  8
0
  6
Continuous
 62
     7
100
AcDbCircle
 10
403.8614517110939
 20
1032.986156744729
 30
0.0
 40
10.99806164918004
100
AcDbArc
 50
0.00000002211994
 51
89.99999997787414
  0
ARC
  5
192
330
1F
100
AcDbEntity
  8
0
  6
Continuous
 62
     7
100
AcDbCircle
 10
420.8577906056339
 20
1011.491187041995
 30
0.0
 40
5.998277245359986
100
AcDbArc
 50
180.0
 51
270.0
  0
ARC
  5
193
330
1F
100
AcDbEntity
  8
0
  6
Continuous
 62
     2
100
AcDbCircle
 10
420.8577906056339
 20
1011.491187041995
 30
0.0
 40
6.998277245359986
100
AcDbArc
 50
180.0
 51
270.0
  0
ARC
  5
194
330
1F
100
AcDbEntity
  8
0
  6
Continuous
 62
     7
100
AcDbCircle
 10
287.4915989244032
 20
881.745009400404
 30
0.0
 40
1.0
100
AcDbArc
 50
180.0
 51
270.0
  0
ARC
  5
195
330
1F
100
AcDbEntity
  8
0
  6
Continuous
 62
     7
100
AcDbCircle
 10
302.4915989244032
 20
881.745009400404
 30
0.0
 40
1.000000000000114
100
AcDbArc
 50
270.0
 51
0.0
  0
ARC
  5
196
330
1F
100
AcDbEntity
  8
0
  6
Continuous
 62
     2
100
AcDbCircle
 10
289.0862620779901
 20
881.725446745352
 30
0.0
 40
8.03761215630999
100
AcDbArc
 50
0.00000000002836
 51
0.13945169975637
  0
ARC
  5
197
330
1F
100
AcDbEntity
  8
0
  6
Continuous
 62
     7
100
AcDbCircle
 10
309.6468133016742
 20
885.2450103148714
 30
0.0
 40
0.4999990855334925
100
AcDbArc
 50
2.13006314732525
 51
90.00008410416643
  0
ARC
  5
198
330
1F
100
AcDbEntity
  8
0
  6
Continuous
 62
     7
100
AcDbCircle
 10
285.64248448801
 20
886.7450094004056
 30
0.0
 40
1.000000000000909
100
AcDbArc
 50
180.0000000000912
 51
269.9999999999479
  0
ARC
  5
199
330
1F
100
AcDbEntity
  8
0
  6
Continuous
 62
     7
100
AcDbCircle
 10
313.7076752690091
 20
869.2450077842896
 30
0.0
 40
2.999998367113947
100
AcDbArc
 50
181.9999449753345
 51
270.0000314977978
  0
ARC
  5
19A
330
1F
100
AcDbEntity
  8
0
  6
Continuous
 62
     7
100
AcDbCircle
 10
407.7207865818029
 20
885.2450095427384
 30
0.0
 40
0.4999998576656492
100
AcDbArc
 50
89.99996521676505
 51
178.0000109296103
  0
ARC
  5
19B
330
1F
100
AcDbEntity
  8
0
  6
Continuous
 62
     7
100
AcDbCircle
 10
413.875113360273
 20
886.745009400404
 30
0.0
 40
1.0
100
AcDbArc
 50
270.0
 51
0.0
  0
ARC
  5
19C
330
1F
100
AcDbEntity
  8
0
  6
Continuous
 62
     7
100
AcDbCircle
 10
414.8759989237169
 20
881.745009400404
 30
0.0
 40
1.0
100
AcDbArc
 50
180.0
 51
270.0
  0
ARC
  5
19D
330
1F
100
AcDbEntity
  8
0
  6
Continuous
 62
     7
100
AcDbCircle
 10
429.875998923716
 20
881.745009400404
 30
0.0
 40
1.000000000000114
100
AcDbArc
 50
270.0
 51
0.0
  0
ARC
  5
19E
330
1F
100
AcDbEntity
  8
0
  6
Continuous
 62
     7
100
AcDbCircle
 10
403.6599209858939
 20
869.2450123072488
 30
0.0
 40
3.000000117884384
100
AcDbArc
 50
270.000001456172
 51
357.9999697581773
  0
ARC
  5
19F
330
1F
100
AcDbEntity
  8
0
  6
Continuous
 62
     7
100
AcDbCircle
 10
431.725113359867
 20
886.7450094002872
 30
0.0
 40
0.9999999998832436
100
AcDbArc
 50
269.9999999934113
 51
0.00000000668965
  0
ARC
  5
1A0
330
1F
100
AcDbEntity
  8
0
  6
Continuous
 62
     7
100
AcDbCircle
 10
560.7994064749357
 20
994.7952776331493
 30
0.0
 40
2.999965251487841
100
AcDbArc
 50
271.9999567384199
 51
348.4492155204523
  0
ARC
  5
1A1
330
1F
100
AcDbEntity
  8
0
  6
Continuous
 62
     7
100
AcDbCircle
 10
483.3992989472217
 20
1010.613900991871
 30
0.0
 40
82.00000000000387
100
AcDbArc
 50
348.4492587819839
 51
351.0436481807985
  0
ARC
  5
1A2
330
1F
100
AcDbEntity
  8
0
  6
Continuous
 62
     2
100
AcDbCircle
 10
483.3948511529727
 20
1017.447596318781
 30
0.0
 40
79.10914590858667
100
AcDbArc
 50
359.9911466337852
 51
8.94999351693121
  0
ARC
  5
1A3
330
1F
100
AcDbEntity
  8
0
  6
Continuous
 62
     7
100
AcDbCircle
 10
483.3992989234528
 20
1017.456307226251
 30
0.0
 40
81.99999997614496
100
AcDbArc
 50
359.9851846602944
 51
8.95573721862702
  0
ARC
  5
1A4
330
1F
100
AcDbEntity
  8
0
  6
Continuous
 62
     7
100
AcDbCircle
 10
549.8992989472256
 20
987.1850777728661
 30
0.0
 40
1.0
100
AcDbArc
 50
270.0
 51
0.0
  0
ARC
  5
1A5
330
1F
100
AcDbEntity
  8
0
  6
Continuous
 62
     7
100
AcDbCircle
 10
549.8992989472256
 20
1041.185103957017
 30
0.0
 40
1.0
100
AcDbArc
 50
0.0
 51
90.0
  0
ARC
  5
1A6
330
1F
100
AcDbEntity
  8
0
  6
Continuous
 62
     7
100
AcDbCircle
 10
549.8992989472256
 20
1026.185103957017
 30
0.0
 40
1.0
100
AcDbArc
 50
270.0
 51
0.0
  0
ARC
  5
1A7
330
1F
100
AcDbEntity
  8
0
  6
Continuous
 62
     7
100
AcDbCircle
 10
544.8992989472256
 20
1042.984218393904
 30
0.0
 40
1.0
100
AcDbArc
 50
0.0
 51
90.0
  0
ARC
  5
1A8
330
1F
100
AcDbEntity
  8
0
  6
Continuous
 62
     7
100
AcDbCircle
 10
544.8992989472256
 20
1023.577274134174
 30
0.0
 40
1.0
100
AcDbArc
 50
270.0
 51
0.0
  0
ARC
  5
1A9
330
1F
100
AcDbEntity
  8
0
  6
Continuous
 62
     7
100
AcDbCircle
 10
546.3992968989608
 20
990.7903181401564
 30
0.0
 40
0.4999979517350254
100
AcDbArc
 50
91.99976989568125
 51
180.0000232323762
  0
ARC
  5
1AA
330
1F
100
AcDbEntity
  8
0
  6
Continuous
 62
     7
100
AcDbCircle
 10
544.8992989472256
 20
985.0859895201316
 30
0.0
 40
1.0
100
AcDbArc
 50
270.0
 51
0.0
  0
ARC
  5
1AB
330
1F
100
AcDbEntity
  8
0
  6
Continuous
 62
     7
100
AcDbCircle
 10
560.7988624637796
 20
1033.274287091318
 30
0.0
 40
3.000627081114897
100
AcDbArc
 50
11.56081899217954
 51
87.98995048656435
  0
ARC
  5
1AC
330
1F
100
AcDbEntity
  8
0
  6
Continuous
 62
     7
100
AcDbCircle
 10
483.3992989472267
 20
1017.456306922168
 30
0.0
 40
81.99999999999828
100
AcDbArc
 50
8.95573743109436
 51
11.55074421072549
  0
ARC
  5
1AD
330
1F
100
AcDbEntity
  8
0
  6
Continuous
 62
     2
100
AcDbCircle
 10
483.3950251100227
 20
1010.622633343067
 30
0.0
 40
79.10897196536126
100
AcDbArc
 50
351.0499706525744
 51
0.00881751279146
  0
ARC
  5
1AE
330
1F
100
AcDbEntity
  8
0
  6
Continuous
 62
     7
100
AcDbCircle
 10
483.3992989234478
 20
1010.613900687807
 30
0.0
 40
81.9999999761505
100
AcDbArc
 50
351.0436483932525
 51
0.01481533969164
  0
ARC
  5
1AF
330
1F
100
AcDbEntity
  8
0
  6
Continuous
 62
     2
100
AcDbCircle
 10
332.290763332059
 20
1025.33911159909
 30
0.0
 40
0.1663461500001529
100
AcDbArc
 50
299.7524870762325
 51
60.24751292392297
  0
ARC
  5
1B0
330
1F
100
AcDbEntity
  8
0
  6
Continuous
 62
     2
100
AcDbCircle
 10
323.8071096820602
 20
1020.681419399091
 30
0.0
 40
0.3326923000012068
100
AcDbArc
 50
240.2480640654436
 51
299.7524870755234
  0
ARC
  5
1B1
330
1F
100
AcDbEntity
  8
0
  6
Continuous
 62
     2
100
AcDbCircle
 10
326.468648082059
 20
1023.160786685353
 30
0.0
 40
0.3326923000000193
100
AcDbArc
 50
180.0
 51
299.9816393683967
  0
ARC
  5
1B2
330
1F
100
AcDbEntity
  8
0
  6
Continuous
 62
     2
100
AcDbCircle
 10
327.799417282067
 20
1023.921404365499
 30
0.0
 40
0.3326923000003482
100
AcDbArc
 50
299.9816393697469
 51
119.9816393696992
  0
ARC
  5
1B3
330
1F
100
AcDbEntity
  8
0
  6
Continuous
 62
     2
100
AcDbCircle
 10
325.13787888206
 20
1022.400112787603
 30
0.0
 40
0.3326922999999056
100
AcDbArc
 50
180.0
 51
0.0
  0
ARC
  5
1B4
330
1F
100
AcDbEntity
  8
0
  6
Continuous
 62
     2
100
AcDbCircle
 10
327.7994172820588
 20
1025.33911159909
 30
0.0
 40
0.3326922999990529
100
AcDbArc
 50
270.0
 51
90.0
  0
ARC
  5
1B5
330
1F
100
AcDbEntity
  8
0
  6
Continuous
 62
     2
100
AcDbCircle
 10
325.13787888206
 20
1028.278110410578
 30
0.0
 40
0.3326922999999624
100
AcDbArc
 50
0.0
 51
150.0000000000584
  0
ARC
  5
1B6
330
1F
100
AcDbEntity
  8
0
  6
Continuous
 62
     2
100
AcDbCircle
 10
323.8071096820602
 20
1025.64045824303
 30
0.0
 40
0.1663461500012916
100
AcDbArc
 50
209.9999999997846
 51
329.9999999999804
  0
ARC
  5
1B7
330
1F
100
AcDbEntity
  8
0
  6
Continuous
 62
     2
100
AcDbCircle
 10
327.7994172820479
 20
1026.756762615086
 30
0.0
 40
0.3326923000002023
100
AcDbArc
 50
240.0183606333919
 51
60.01836063329403
  0
ARC
  5
1B8
330
1F
100
AcDbEntity
  8
0
  6
Continuous
 62
     2
100
AcDbCircle
 10
326.468648082059
 20
1027.517436512828
 30
0.0
 40
0.3326923000003102
100
AcDbArc
 50
60.01836063124395
 51
180.0
  0
ARC
  5
1B9
330
1F
100
AcDbEntity
  8
0
  6
Continuous
 62
     2
100
AcDbCircle
 10
322.4763404820599
 20
1028.278110410578
 30
0.0
 40
0.3326923000005004
100
AcDbArc
 50
29.99999999994652
 51
180.0
  0
ARC
  5
1BA
330
1F
100
AcDbEntity
  8
0
  6
Continuous
 62
     2
100
AcDbCircle
 10
319.8148020820588
 20
1026.756818832687
 30
0.0
 40
0.3326923000012698
100
AcDbArc
 50
0.0
 51
180.0
  0
ARC
  5
1BB
330
1F
100
AcDbEntity
  8
0
  6
Continuous
 62
     2
100
AcDbCircle
 10
321.14557128206
 20
1027.524570294225
 30
0.0
 40
0.3326922999999624
100
AcDbArc
 50
0.0
 51
180.0
  0
ARC
  5
1BC
330
1F
100
AcDbEntity
  8
0
  6
Continuous
 62
     2
100
AcDbCircle
 10
315.323640809803
 20
1025.33911159909
 30
0.0
 40
0.1665309277435119
100
AcDbArc
 50
119.7519359344937
 51
240.2480640651957
  0
ARC
  5
1BD
330
1F
100
AcDbEntity
  8
0
  6
Continuous
 62
     2
100
AcDbCircle
 10
319.8148020820588
 20
1023.921404365494
 30
0.0
 40
0.3326922999989961
100
AcDbArc
 50
180.0
 51
0.0
  0
ARC
  5
1BE
330
1F
100
AcDbEntity
  8
0
  6
Continuous
 62
     2
100
AcDbCircle
 10
321.47826358206
 20
1023.353782752671
 30
0.0
 40
0.665384599999868
100
AcDbArc
 50
179.9999999999119
 51
240.0183606307831
  0
ARC
  5
1BF
330
1F
100
AcDbEntity
  8
0
  6
Continuous
 62
     2
100
AcDbCircle
 10
322.4763404820599
 20
1023.921404365494
 30
0.0
 40
0.3326923000009288
100
AcDbArc
 50
180.0
 51
0.0
  0
ARC
  5
1C0
330
1F
100
AcDbEntity
  8
0
  6
Continuous
 62
     2
100
AcDbCircle
 10
323.4744173820739
 20
1021.829594771365
 30
0.0
 40
0.3326923000001853
100
AcDbArc
 50
240.0183606282253
 51
60.01836062871901
  0
ARC
  5
1C1
330
1F
100
AcDbEntity
  8
0
  6
Continuous
 62
     2
100
AcDbCircle
 10
323.8071096820602
 20
1029.996803799091
 30
0.0
 40
0.3326922999985005
100
AcDbArc
 50
60.24751292431144
 51
119.7519359347216
  0
LWPOLYLINE
  5
1C2
330
1F
100
AcDbEntity
  8
Skizziergeometrie_ISO_
  6
Continuous
 62
     7
100
AcDbPolyline
 90
        2
 70
     0
 43
0.5
 10
665.9606238126314
 20
754.2342104757415
 42
0.57735026918874
 10
666.5379740818191
 20
754.2342104757415
 42
0.57735026918874
  0
LWPOLYLINE
  5
1C3
330
1F
100
AcDbEntity
  8
Skizziergeometrie_ISO_
  6
Continuous
 62
     7
100
AcDbPolyline
 90
        2
 70
     0
 43
0.5
 10
660.2493009648313
 20
749.2325451711837
 42
0.26803505952201
 10
660.9163398967951
 20
748.0776272416643
 42
0.26803505952201
  0
LWPOLYLINE
  5
1C4
330
1F
100
AcDbEntity
  8
Skizziergeometrie_ISO_
  6
Continuous
 62
     7
100
AcDbPolyline
 90
        2
 70
     0
 43
0.5
 10
649.4164283969433
 20
753.9812300241423
 42
0.57756392459821
 10
649.4164283969433
 20
753.4037729667771
 42
0.57756392459821
  0
LWPOLYLINE
  5
1C5
330
1F
100
AcDbEntity
  8
Skizziergeometrie_ISO_
  6
Continuous
 62
     7
100
AcDbPolyline
 90
        2
 70
     0
 43
0.5
 10
683.0821694975073
 20
753.4037729667771
 42
0.577563924599
 10
683.0821694975073
 20
753.9812300241423
 42
0.577563924599
  0
LWPOLYLINE
  5
1C6
102
{ACAD_REACTORS
330
24F
102
}
330
1F
100
AcDbEntity
  8
Skizziergeometrie_ISO_
  6
Continuous
 62
     7
100
AcDbPolyline
 90
        2
 70
     0
 43
0.5
 10
671.9157785652794
 20
759.1566351007717
 42
0.57724345630767
 10
670.9159635962853
 20
758.5791780434059
 42
0.57724345630767
  0
LWPOLYLINE
  5
1C7
102
{ACAD_REACTORS
330
24F
102
}
330
1F
100
AcDbEntity
  8
Skizziergeometrie_ISO_
  6
Continuous
 62
     7
100
AcDbPolyline
 90
        2
 70
     0
 43
0.5
 10
670.9159635962853
 20
748.8058249475135
 42
0.57724345630767
 10
671.9157785652794
 20
748.2283678901478
 42
0.57724345630767
  0
LWPOLYLINE
  5
1C8
330
1F
100
AcDbEntity
  8
Skizziergeometrie_ISO_
  6
Continuous
 62
     7
100
AcDbPolyline
 90
        2
 70
     0
 43
0.5
 10
663.9048438069915
 20
760.4615836412967
 42
0.76732698797902
 10
662.9159764397434
 20
760.1966174288215
 42
0.76732698797902
  0
LWPOLYLINE
  5
1C9
330
1F
100
AcDbEntity
  8
Skizziergeometrie_ISO_
  6
Continuous
 62
     7
100
AcDbPolyline
 90
        2
 70
     0
 43
0.5
 10
662.9159764397452
 20
750.3859627135865
 42
1.0
 10
664.2493097730774
 20
750.3859627135865
 42
1.0
  0
LWPOLYLINE
  5
1CA
330
1F
100
AcDbEntity
  8
Skizziergeometrie_ISO_
  6
Continuous
 62
     7
100
AcDbPolyline
 90
        2
 70
     0
 43
0.5
 10
668.2492881213732
 20
747.2673583273709
 42
1.0
 10
669.5826214547071
 20
747.2673583273709
 42
1.0
  0
LWPOLYLINE
  5
1CB
330
1F
100
AcDbEntity
  8
Skizziergeometrie_ISO_
  6
Continuous
 62
     7
100
AcDbPolyline
 90
        2
 70
     0
 43
0.5
 10
669.5826214547071
 20
760.1966174288214
 42
0.76732698797878
 10
668.5937540874595
 20
760.4615836412967
 42
0.76732698797878
  0
LWPOLYLINE
  5
1CC
330
1F
100
AcDbEntity
  8
Skizziergeometrie_ISO_
  6
Continuous
 62
     7
100
AcDbPolyline
 90
        2
 70
     0
 43
0.5
 10
661.5826342981652
 20
758.5791780434059
 42
1.0
 10
660.2493009648313
 20
758.5791780434059
 42
1.0
  0
LWPOLYLINE
  5
1CD
330
1F
100
AcDbEntity
  8
Skizziergeometrie_ISO_
  6
Continuous
 62
     7
100
AcDbPolyline
 90
        2
 70
     0
 43
0.5
 10
665.2516103061391
 20
745.576509697812
 42
1.0000000000003
 10
665.9179069107911
 20
746.7314238125435
 42
1.0000000000003
  0
LWPOLYLINE
  5
1CE
330
1F
100
AcDbEntity
  8
Skizziergeometrie_ISO_
  6
Continuous
 62
     7
100
AcDbPolyline
 90
        2
 70
     0
 43
0.5
 10
658.9159656138911
 20
756.9990402773329
 42
1.0
 10
657.5826322805594
 20
756.9990402773329
 42
1.0
  0
LWPOLYLINE
  5
1CF
330
1F
100
AcDbEntity
  8
Skizziergeometrie_ISO_
  6
Continuous
 62
     7
100
AcDbPolyline
 90
        2
 70
     0
 43
0.5
 10
657.5826322805594
 20
750.3859627135865
 42
1.0
 10
658.9159656138911
 20
750.3859627135865
 42
1.0
  0
LWPOLYLINE
  5
1D0
102
{ACAD_REACTORS
330
24F
102
}
330
1F
100
AcDbEntity
  8
Skizziergeometrie_ISO_
  6
Continuous
 62
     7
100
AcDbPolyline
 90
        2
 70
     0
 43
0.5
 10
673.9883874218192
 20
756.4215832199671
 42
1.0000000000003
 10
674.6546840264712
 20
757.5764973346987
 42
1.0000000000003
  0
LWPOLYLINE
  5
1D1
102
{ACAD_REACTORS
330
24F
102
}
330
1F
100
AcDbEntity
  8
Skizziergeometrie_ISO_
  6
Continuous
 62
     7
100
AcDbPolyline
 90
        2
 70
     0
 43
0.5
 10
674.3215357241454
 20
753.0258348287929
 42
1.0
 10
674.3215357241454
 20
754.3591681621265
 42
1.0
  0
LWPOLYLINE
  5
1D2
102
{ACAD_REACTORS
330
24F
102
}
330
1F
100
AcDbEntity
  8
Skizziergeometrie_ISO_
  6
Continuous
 62
     7
100
AcDbPolyline
 90
        2
 70
     0
 43
0.5
 10
674.6546840264712
 20
749.8085056562207
 42
1.0000000000003
 10
673.9883874218192
 20
750.9634197709523
 42
1.0000000000003
  0
ARC
  5
1D3
330
1F
100
AcDbEntity
  8
0
  6
Continuous
 62
     7
100
AcDbCircle
 10
671.5826302629532
 20
748.8058249475135
 30
0.0
 40
0.6666666666678793
100
AcDbArc
 50
180.0
 51
299.9816393688337
  0
ARC
  5
1D4
330
1F
100
AcDbEntity
  8
0
  6
Continuous
 62
     7
100
AcDbCircle
 10
671.5826302629532
 20
758.5791780434059
 30
0.0
 40
0.6666666666666282
100
AcDbArc
 50
60.0183606311663
 51
180.0
  0
ARC
  5
1D5
330
1F
100
AcDbEntity
  8
0
  6
Continuous
 62
     7
100
AcDbCircle
 10
674.3215357241454
 20
756.9990402773329
 30
0.0
 40
0.6666666666666282
100
AcDbArc
 50
240.0183606311663
 51
60.01835942370929
  0
ARC
  5
1D6
330
1F
100
AcDbEntity
  8
0
  6
Continuous
 62
     7
100
AcDbCircle
 10
674.3215357241454
 20
753.6925014954597
 30
0.0
 40
0.6666666666668561
100
AcDbArc
 50
270.0
 51
90.0
  0
ARC
  5
1D7
330
1F
100
AcDbEntity
  8
0
  6
Continuous
 62
     7
100
AcDbCircle
 10
674.3215357241454
 20
750.3859627135865
 30
0.0
 40
0.666666666666401
100
AcDbArc
 50
299.9816393687998
 51
119.9816393688337
  0
ARC
  5
1D8
102
{ACAD_REACTORS
330
24E
102
}
330
1F
100
AcDbEntity
  8
0
  6
Continuous
 62
     7
100
AcDbCircle
 10
663.4459088646952
 20
760.1966174288215
 30
0.0
 40
0.5299324249505502
100
AcDbArc
 50
29.99999999999078
 51
180.0
  0
ARC
  5
1D9
102
{ACAD_REACTORS
330
24E
102
}
330
1F
100
AcDbEntity
  8
0
  6
Continuous
 62
     7
100
AcDbCircle
 10
663.5826431064113
 20
750.3859627135865
 30
0.0
 40
0.6666666666660603
100
AcDbArc
 50
180.0
 51
0.0
  0
ARC
  5
1DA
102
{ACAD_REACTORS
330
24E
102
}
330
1F
100
AcDbEntity
  8
0
  6
Continuous
 62
     7
100
AcDbCircle
 10
666.249298947225
 20
754.4008771424081
 30
0.0
 40
0.3333333333322915
100
AcDbArc
 50
210.0000000000959
 51
329.9999999999432
  0
ARC
  5
1DB
102
{ACAD_REACTORS
330
24E
102
}
330
1F
100
AcDbEntity
  8
0
  6
Continuous
 62
     7
100
AcDbCircle
 10
668.9159547880392
 20
747.2673583273709
 30
0.0
 40
0.6666666666660603
100
AcDbArc
 50
180.0
 51
0.0
  0
ARC
  5
1DC
102
{ACAD_REACTORS
330
24E
102
}
330
1F
100
AcDbEntity
  8
0
  6
Continuous
 62
     7
100
AcDbCircle
 10
669.0526890297554
 20
760.1966174288214
 30
0.0
 40
0.5299324249517667
100
AcDbArc
 50
0.0
 51
149.999999999974
  0
ARC
  5
1DD
102
{ACAD_REACTORS
330
24D
102
}
330
1F
100
AcDbEntity
  8
0
  6
Continuous
 62
     7
100
AcDbCircle
 10
660.9159676314973
 20
758.5791780434059
 30
0.0
 40
0.6666666666678793
100
AcDbArc
 50
0.0
 51
180.0
  0
ARC
  5
1DE
102
{ACAD_REACTORS
330
24D
102
}
330
1F
100
AcDbEntity
  8
0
  6
Continuous
 62
     7
100
AcDbCircle
 10
661.5826387022873
 20
749.2325451711837
 30
0.0
 40
1.333337737456077
100
AcDbArc
 50
180.0
 51
240.0183606311383
  0
ARC
  5
1DF
102
{ACAD_REACTORS
330
24D
102
}
330
1F
100
AcDbEntity
  8
0
  6
Continuous
 62
     7
100
AcDbCircle
 10
665.5847586084653
 20
746.1539667551777
 30
0.0
 40
0.6666666666666282
100
AcDbArc
 50
240.0183606311663
 51
60.01836063120015
  0
ARC
  5
1E0
102
{ACAD_REACTORS
330
24C
102
}
330
1F
100
AcDbEntity
  8
0
  6
Continuous
 62
     7
100
AcDbCircle
 10
658.249298947225
 20
750.3859627135865
 30
0.0
 40
0.6666666666656056
100
AcDbArc
 50
180.0
 51
0.0
  0
ARC
  5
1E1
102
{ACAD_REACTORS
330
24C
102
}
330
1F
100
AcDbEntity
  8
0
  6
Continuous
 62
     7
100
AcDbCircle
 10
658.249298947225
 20
756.9990402773329
 30
0.0
 40
0.6666666666660603
100
AcDbArc
 50
0.0
 51
180.0
  0
CIRCLE
  5
1E2
330
1F
100
AcDbEntity
  8
0
  6
Continuous
 62
     7
100
AcDbCircle
 10
422.360398923717
 20
994.68507777287
 30
0.0
 40
8.5
  0
CIRCLE
  5
1E3
330
1F
100
AcDbEntity
  8
0
  6
Continuous
 62
     2
100
AcDbCircle
 10
422.360398923717
 20
994.68507777287
 30
0.0
 40
7.500000000000528
  0
CIRCLE
  5
1E4
330
1F
100
AcDbEntity
  8
0
  6
Continuous
 62
     2
100
AcDbCircle
 10
294.9759989244042
 20
1033.685103957022
 30
0.0
 40
7.500000000000649
  0
CIRCLE
  5
1E5
330
1F
100
AcDbEntity
  8
0
  6
Continuous
 62
     7
100
AcDbCircle
 10
294.9759989244042
 20
1033.685103957022
 30
0.0
 40
8.500000000000627
  0
SPLINE
  5
1E6
330
1F
100
AcDbEntity
  8
0
  6
Continuous
 62
     2
100
AcDbSpline
210
0.0
220
0.0
230
1.0
 70
     8
 71
     3
 72
    28
 73
    24
 74
    22
 42
0.0000000001
 43
0.0000000001
 44
0.00000001
 40
0.0
 40
0.0
 40
0.0
 40
0.0
 40
0.0638613234029852
 40
0.1265529533089719
 40
0.1873028872578409
 40
0.2078424982506469
 40
0.2317998946188811
 40
0.2584511219082841
 40
0.2870722256818469
 40
0.3169392515222717
 40
0.3473282450446886
 40
0.3757584453777153
 40
0.3996306338291712
 40
0.4193064016562951
 40
0.4351473400835878
 40
0.4475150402920612
 40
0.4567710934078491
 40
0.4722153981464719
 40
0.4834306788451941
 40
0.491101540947028
 40
0.4959125893545499
 40
0.498548429477118
 40
0.4996936783564332
 40
0.4996936783564332
 40
0.4996936783564332
 40
0.4996936783564332
 10
316.6269411619981
 20
990.7903179374208
 30
0.0
 10
316.6269293433336
 20
990.8116050420706
 30
0.0
 10
316.6269059224771
 20
990.8537893535959
 30
0.0
 10
316.6268912937539
 20
990.9162236484269
 30
0.0
 10
316.6268859118155
 20
990.9642173730144
 30
0.0
 10
316.6268834881264
 20
990.99929968671
 30
0.0
 10
316.6268823281732
 20
991.0230157648992
 30
0.0
 10
316.6268817266847
 20
991.04942567404
 30
0.0
 10
316.6268819638767
 20
991.0778054596791
 30
0.0
 10
316.6268833303759
 20
991.1074311673683
 30
0.0
 10
316.6268860569824
 20
991.1369932404868
 30
0.0
 10
316.6268901322348
 20
991.164557034306
 30
0.0
 10
316.6268952178367
 20
991.1885497526537
 30
0.0
 10
316.6269008103747
 20
991.2083460501223
 30
0.0
 10
316.626906542676
 20
991.2243075179163
 30
0.0
 10
316.6269120776441
 20
991.236795747328
 30
0.0
 10
316.6269185772709
 20
991.2491517648589
 30
0.0
 10
316.6269266270838
 20
991.2611236424316
 30
0.0
 10
316.6269358811579
 20
991.2725671192997
 30
0.0
 10
316.6269451980255
 20
991.2804661821137
 30
0.0
 10
316.6269486479647
 20
991.285505422865
 30
0.0
 10
316.6269543129223
 20
991.2883694782402
 30
0.0
 10
316.6269486384572
 20
991.2896298303887
 30
0.0
 10
316.6269469197262
 20
991.290011576728
 30
0.0
 11
316.6269411619981
 21
990.7903179374208
 31
0.0
 11
316.626909153058
 21
990.8541792528019
 31
0.0
 11
316.6268924386624
 21
990.9168708804798
 31
0.0
 11
316.6268850603062
 21
990.9776208139806
 31
0.0
 11
316.6268836305953
 21
990.9981604249236
 31
0.0
 11
316.626882470891
 21
991.0221178212638
 31
0.0
 11
316.6268818749992
 21
991.0487690485465
 31
0.0
 11
316.6268821367266
 21
991.0773901523189
 31
0.0
 11
316.6268835498796
 21
991.1072571781259
 31
0.0
 11
316.6268864082642
 21
991.1376461715139
 31
0.0
 11
316.6268906871486
 21
991.1660763715249
 31
0.0
 11
316.6268958220357
 21
991.1899485594241
 31
0.0
 11
316.6269014499163
 21
991.2096243264464
 31
0.0
 11
316.6269072077813
 21
991.2254652638272
 31
0.0
 11
316.6269127326216
 21
991.2378329628017
 31
0.0
 11
316.626917661428
 21
991.2470890146052
 31
0.0
 11
316.6269279813865
 21
991.2625333158959
 31
0.0
 11
316.6269376597988
 21
991.2737485924185
 31
0.0
 11
316.6269455447519
 21
991.2814194504679
 31
0.0
 11
316.626950484333
 21
991.2862304963396
 31
0.0
 11
316.6269513266286
 21
991.2888663363276
 31
0.0
 11
316.6269469197262
 21
991.290011576728
 31
0.0
  0
SPLINE
  5
1E7
330
1F
100
AcDbEntity
  8
0
  6
Continuous
 62
     2
100
AcDbSpline
210
0.0
220
0.0
230
1.0
 70
     8
 71
     3
 72
    18
 73
    14
 74
    12
 42
0.0000000001
 43
0.0000000001
 44
0.00000001
 40
0.0
 40
0.0
 40
0.0
 40
0.0
 40
0.4567189174398324
 40
0.9045527939957012
 40
1.187851380329519
 40
1.451562747081977
 40
1.689827827372157
 40
1.897624985050274
 40
2.071165764412577
 40
2.208078179449218
 40
2.307483501634401
 40
2.36998675951661
 40
2.397437257161227
 40
2.397437257161227
 40
2.397437257161227
 40
2.397437257161227
 10
317.1349966696782
 20
994.1945753355711
 30
0.0
 10
317.1349112008146
 20
994.0423357191951
 30
0.0
 10
317.1347419258046
 20
993.740818166295
 30
0.0
 10
317.1346713874352
 20
993.3448677039725
 30
0.0
 10
317.1346638219168
 20
993.013253095432
 30
0.0
 10
317.1346843634185
 20
992.7514947482791
 30
0.0
 10
317.1347113173963
 20
992.5149035582235
 30
0.0
 10
317.1347335044059
 20
992.3083691901809
 30
0.0
 10
317.134714978447
 20
992.1356191562672
 30
0.0
 10
317.1346942347622
 20
991.9989994343935
 30
0.0
 10
317.1345298828345
 20
991.8993929870803
 30
0.0
 10
317.1344912592069
 20
991.8362724775045
 30
0.0
 10
317.1341721327342
 20
991.8062894817313
 30
0.0
 10
317.1340747473562
 20
991.7971398008756
 30
0.0
 11
317.1349966696782
 21
994.1945753355711
 31
0.0
 11
317.1347697233741
 21
993.7378564745168
 31
0.0
 11
317.1346758200261
 21
993.2900226078059
 31
0.0
 11
317.1346686267295
 21
993.0067240215634
 31
0.0
 11
317.1346866661901
 21
992.743012655428
 31
0.0
 11
317.1347121986321
 21
992.5047475765058
 31
0.0
 11
317.1347266286947
 21
992.2969504193287
 31
0.0
 11
317.1347122270959
 21
992.123409640564
 31
0.0
 11
317.1346527242831
 21
991.9864972384574
 31
0.0
 11
317.1345307052163
 21
991.8870919911609
 31
0.0
 11
317.1343388937716
 21
991.8245890275971
 31
0.0
 11
317.1340747473562
 21
991.7971398008756
 31
0.0
  0
SPLINE
  5
1E8
330
1F
100
AcDbEntity
  8
0
  6
Continuous
 62
     2
100
AcDbSpline
210
0.0
220
0.0
230
1.0
 70
     8
 71
     3
 72
     9
 73
     5
 74
     3
 42
0.0000000001
 43
0.0000000001
 44
0.00000001
 40
0.0
 40
0.0
 40
0.0
 40
0.0
 40
6.374043160072532
 40
12.78718205034332
 40
12.78718205034332
 40
12.78718205034332
 40
12.78718205034332
 10
403.677895694698
 20
1030.22223072868
 30
0.0
 10
403.6680944176057
 20
1028.097569964486
 30
0.0
 10
403.6484317464628
 20
1023.835216650478
 30
0.0
 10
403.6456940539342
 20
1019.572818828705
 30
0.0
 10
403.644321022538
 20
1017.435103956969
 30
0.0
 11
403.677895694698
 21
1030.22223072868
 31
0.0
 11
403.6526972742801
 21
1023.848237377093
 31
0.0
 11
403.644321022538
 21
1017.435103956969
 31
0.0
  0
SPLINE
  5
1E9
330
1F
100
AcDbEntity
  8
0
  6
Continuous
 62
     2
100
AcDbSpline
210
0.0
220
0.0
230
1.0
 70
     8
 71
     3
 72
    28
 73
    24
 74
    22
 42
0.0000000001
 43
0.0000000001
 44
0.00000001
 40
0.0
 40
0.0
 40
0.0
 40
0.0
 40
0.0011449786953128
 40
0.00378066691725
 40
0.0085916583846051
 40
0.0162625468084913
 40
0.0274779259003172
 40
0.0429223893702926
 40
0.0521785410713995
 40
0.064546322097326
 40
0.0803873174546308
 40
0.10006311214978
 40
0.12393529118846
 40
0.1523654395773935
 40
0.1684909276183959
 40
0.1887798277201292
 40
0.2132732003288034
 40
0.2420121058904081
 40
0.2750376048516211
 40
0.3123907576588996
 40
0.3731407001953163
 40
0.4358323173377102
 40
0.4996936078556907
 40
0.4996936078556907
 40
0.4996936078556907
 40
0.4996936078556907
 10
400.7094509605799
 20
991.2900115452294
 30
0.0
 10
400.7094509168419
 20
991.2896298856664
 30
0.0
 10
400.7094507724212
 20
991.2883696633677
 30
0.0
 10
400.7094509135526
 20
991.2855057772332
 30
0.0
 10
400.7094510150598
 20
991.2804665878687
 30
0.0
 10
400.7094512877362
 20
991.2725675015425
 30
0.0
 10
400.7094515958998
 20
991.2611239245529
 30
0.0
 10
400.709451892427
 20
991.2491519264681
 30
0.0
 10
400.7094521618203
 20
991.236795794406
 30
0.0
 10
400.7094524141679
 20
991.2243074850467
 30
0.0
 10
400.7094527103831
 20
991.2083459613569
 30
0.0
 10
400.7094530481779
 20
991.1885496383292
 30
0.0
 10
400.7094534245164
 20
991.164556930958
 30
0.0
 10
400.7094537537188
 20
991.1417476591378
 30
0.0
 10
400.7094540479458
 20
991.1201328136287
 30
0.0
 10
400.7094543120262
 20
991.0998302267138
 30
0.0
 10
400.7094546149564
 20
991.0753231672913
 30
0.0
 10
400.7094549511631
 20
991.0465705749162
 30
0.0
 10
400.709455315026
 20
991.0135313891415
 30
0.0
 10
400.7094557666223
 20
990.9698218577087
 30
0.0
 10
400.7094562739217
 20
990.9162236202159
 30
0.0
 10
400.7094568100297
 20
990.8537893368193
 30
0.0
 10
400.7094571243799
 20
990.8116050342668
 30
0.0
 10
400.7094572830079
 20
990.7903179374282
 30
0.0
 11
400.7094509605799
 21
991.2900115452294
 31
0.0
 11
400.7094508483081
 21
991.2888665665396
 31
0.0
 11
400.7094508687597
 21
991.2862308783177
 31
0.0
 11
400.7094510047432
 21
991.2814198868523
 31
0.0
 11
400.7094512390673
 21
991.273748998432
 31
0.0
 11
400.7094515545403
 21
991.2625336193446
 31
0.0
 11
400.709451933971
 21
991.2470891558793
 31
0.0
 11
400.7094521370992
 21
991.2378330041804
 31
0.0
 11
400.7094523877939
 21
991.225465223157
 31
0.0
 11
400.7094526831411
 21
991.2096242278025
 31
0.0
 11
400.7094530202261
 21
991.1899484331102
 31
0.0
 11
400.7094533961352
 21
991.1660762540745
 31
0.0
 11
400.7094538079539
 21
991.1376461056885
 31
0.0
 11
400.7094540276145
 21
991.121520617649
 31
0.0
 11
400.7094542918164
 21
991.101231717549
 31
0.0
 11
400.7094545949547
 21
991.0767383449422
 31
0.0
 11
400.7094549314241
 21
991.0479994393826
 31
0.0
 11
400.7094552956196
 21
991.0149739404234
 31
0.0
 11
400.7094556819359
 21
990.9776207876181
 31
0.0
 11
400.7094562590449
 21
990.9168708450844
 31
0.0
 11
400.709456794933
 21
990.8541792279443
 31
0.0
 11
400.7094572830079
 21
990.7903179374282
 31
0.0
  0
SPLINE
  5
1EA
330
1F
100
AcDbEntity
  8
0
  6
Continuous
 62
     2
100
AcDbSpline
210
0.0
220
0.0
230
1.0
 70
     8
 71
     3
 72
    19
 73
    15
 74
    13
 42
0.0000000001
 43
0.0000000001
 44
0.00000001
 40
0.0
 40
0.0
 40
0.0
 40
0.0
 40
0.3524693073007603
 40
0.6921094531799521
 40
1.012690170891169
 40
1.258130657613183
 40
1.484491314775625
 40
1.689828029709357
 40
1.89567559999733
 40
2.069251025434961
 40
2.208076527387798
 40
2.305322157078784
 40
2.368663084827747
 40
2.397431123413191
 40
2.397431123413191
 40
2.397431123413191
 40
2.397431123413191
 10
400.2023460895839
 20
994.1945711749138
 30
0.0
 10
400.2023457992958
 20
994.0770814058135
 30
0.0
 10
400.2023452292855
 20
993.8463782547531
 30
0.0
 10
400.2023415323265
 20
993.5088148644734
 30
0.0
 10
400.2023372666196
 20
993.2069277477331
 30
0.0
 10
400.2023332205068
 20
992.9428004605652
 30
0.0
 10
400.202329795687
 20
992.7170878409855
 30
0.0
 10
400.2023268517572
 20
992.5045728602104
 30
0.0
 10
400.2023248040409
 20
992.3096529566678
 30
0.0
 10
400.2023235431786
 20
992.1369034574462
 30
0.0
 10
400.202322902765
 20
992.0003546050868
 30
0.0
 10
400.2023225917532
 20
991.9005505852897
 30
0.0
 10
400.2023224689685
 20
991.8374323866151
 30
0.0
 10
400.2023224576835
 20
991.8067293978365
 30
0.0
 10
400.202322454159
 20
991.7971400516416
 30
0.0
 11
400.2023460895839
 21
994.1945711749138
 31
0.0
 11
400.2023447112606
 21
993.8421018676157
 31
0.0
 11
400.2023412776441
 21
993.5024617217539
 31
0.0
 11
400.2023368407642
 21
993.1818810040734
 31
0.0
 11
400.20233312927
 21
992.9364405173794
 31
0.0
 11
400.2023297415988
 21
992.7100798602423
 31
0.0
 11
400.2023269685308
 21
992.5047431453273
 31
0.0
 11
400.2023248104003
 21
992.2988955750507
 31
0.0
 11
400.2023235424999
 21
992.1253201496177
 31
0.0
 11
400.2023228805887
 21
991.9864946476664
 31
0.0
 11
400.2023225795193
 21
991.8892490179759
 31
0.0
 11
400.2023224694581
 21
991.825908090227
 31
0.0
 11
400.202322454159
 21
991.7971400516416
 31
0.0
  0
SPLINE
  5
1EB
330
1F
100
AcDbEntity
  8
0
  6
Continuous
 62
     2
100
AcDbSpline
210
0.0
220
0.0
230
1.0
 70
     8
 71
     3
 72
    19
 73
    15
 74
    13
 42
0.0000000001
 43
0.0000000001
 44
0.00000001
 40
0.0
 40
0.0
 40
0.0
 40
0.0
 40
0.5358706758659654
 40
1.083888293887713
 40
1.441058675181085
 40
1.779953429792322
 40
2.091045393764495
 40
2.365850595797812
 40
2.597815783406135
 40
2.783862125543627
 40
2.923321188930424
 40
3.020035186030775
 40
3.055321621603963
 40
3.084560793117426
 40
3.084560793117426
 40
3.084560793117426
 40
3.084560793117426
 10
403.6779201871418
 20
997.848845050772
 30
0.0
 10
403.8565360516853
 20
997.8513896479099
 30
0.0
 10
404.217816587084
 20
997.8565365222858
 30
0.0
 10
404.6976780004957
 20
997.880814638331
 30
0.0
 10
405.1111540396733
 20
997.912965204026
 30
0.0
 10
405.4451097403283
 20
997.9477633874661
 30
0.0
 10
405.7506743196687
 20
997.9889186853381
 30
0.0
 10
406.0192977120229
 20
998.0359510324719
 30
0.0
 10
406.2446452019364
 20
998.0869981414852
 30
0.0
 10
406.4228716186464
 20
998.1403437406769
 30
0.0
 10
406.553064195872
 20
998.1947823441365
 30
0.0
 10
406.6296881469805
 20
998.244485658428
 30
0.0
 10
406.6657508016931
 20
998.2856706265436
 30
0.0
 10
406.6728927176956
 20
998.3061391352674
 30
0.0
 10
406.6761290097099
 20
998.3154142473383
 30
0.0
 11
403.6779201871418
 21
997.848845050772
 31
0.0
 11
404.2136812284575
 21
997.8596842325406
 31
0.0
 11
404.761016931024
 21
997.8870144055771
 31
0.0
 11
405.117086605952
 21
997.9150334681947
 31
0.0
 11
405.4541222588525
 21
997.9504823521954
 31
0.0
 11
405.7623388016518
 21
997.9926815558954
 31
0.0
 11
406.0328940144083
 21
998.0408248411477
 31
0.0
 11
406.258865542733
 21
998.09321488456
 31
0.0
 11
406.4365586271879
 21
998.1483366512194
 31
0.0
 11
406.5640965571988
 21
998.2047539071723
 31
0.0
 11
406.642874125723
 21
998.2608582023068
 31
0.0
 11
406.6649232717827
 21
998.2884075706027
 31
0.0
 11
406.6761290097099
 21
998.3154142473383
 31
0.0
  0
SPLINE
  5
1EC
330
1F
100
AcDbEntity
  8
0
  6
Continuous
 62
     2
100
AcDbSpline
210
0.0
220
0.0
230
1.0
 70
     8
 71
     3
 72
    15
 73
    11
 74
     9
 42
0.0000000001
 43
0.0000000001
 44
0.00000001
 40
0.0
 40
0.0
 40
0.0
 40
0.0
 40
0.6945434095972085
 40
1.391048437414013
 40
2.089432150335433
 40
2.785002068821455
 40
3.487177235726167
 40
4.188835863288805
 40
4.894142366981079
 40
5.597325282388072
 40
5.597325282388072
 40
5.597325282388072
 40
5.597325282388072
 10
400.2023460895839
 20
994.1945711749138
 30
0.0
 10
400.4342188740235
 20
994.208934162667
 30
0.0
 10
400.8986193276403
 20
994.2377007039582
 30
0.0
 10
401.5666502570537
 20
994.4598861655198
 30
0.0
 10
402.1760255192197
 20
994.8058070109856
 30
0.0
 10
402.7048752339383
 20
995.2698251081159
 30
0.0
 10
403.1335841200613
 20
995.828843726402
 30
0.0
 10
403.4465499029151
 20
996.46220437803
 30
0.0
 10
403.6436786045478
 20
997.143821717726
 30
0.0
 10
403.6665178045453
 20
997.6140736069925
 30
0.0
 10
403.6779201871418
 20
997.848845050772
 30
0.0
 11
400.2023460895839
 21
994.1945711749138
 31
0.0
 11
400.893064294744
 21
994.2673647795461
 31
0.0
 11
401.5562366339102
 21
994.4802537232207
 31
0.0
 11
402.1631281012333
 21
994.825829412997
 31
0.0
 11
402.6865616842202
 21
995.2839066943635
 31
0.0
 11
403.1140848213731
 21
995.8409290747187
 31
0.0
 11
403.4267748880446
 21
996.4690610288797
 31
0.0
 11
403.6166097036619
 21
997.1483400635408
 31
0.0
 11
403.6779201871418
 21
997.848845050772
 31
0.0
  0
SPLINE
  5
1ED
330
1F
100
AcDbEntity
  8
0
  6
Continuous
 62
     2
100
AcDbSpline
210
0.0
220
0.0
230
1.0
 70
     8
 71
     3
 72
    23
 73
    19
 74
    17
 42
0.0000000001
 43
0.0000000001
 44
0.00000001
 40
0.0
 40
0.0
 40
0.0
 40
0.0
 40
0.6439395959237763
 40
1.288889177604639
 40
1.935983441738051
 40
2.582200473250132
 40
3.22329146303947
 40
3.863273376096052
 40
4.503039735386242
 40
5.142039949703484
 40
5.777378209109124
 40
6.41219887809092
 40
7.047928357277598
 40
7.68327888638493
 40
8.314953399446061
 40
8.945716903993834
 40
9.57506771756667
 40
10.20383285197787
 40
10.20383285197787
 40
10.20383285197787
 40
10.20383285197787
 10
400.202322454159
 20
991.7971400516416
 30
0.0
 10
400.4170529820861
 20
991.8034759992875
 30
0.0
 10
400.8468508316026
 20
991.8161578321831
 30
0.0
 10
401.4859676772358
 20
991.9165682546179
 30
0.0
 10
402.112972891003
 20
992.0758123757453
 30
0.0
 10
402.7198382609516
 20
992.2971292677232
 30
0.0
 10
403.299392393199
 20
992.5767243050287
 30
0.0
 10
403.8463901241614
 20
992.9115638444937
 30
0.0
 10
404.3570179101157
 20
993.2983998340935
 30
0.0
 10
404.8262417648875
 20
993.7322555740041
 30
0.0
 10
405.2493979286451
 20
994.2089496416265
 30
0.0
 10
405.6230771036999
 20
994.7239866676846
 30
0.0
 10
405.9445478800073
 20
995.2731246337535
 30
0.0
 10
406.2108590279829
 20
995.8498278743061
 30
0.0
 10
406.4195701131925
 20
996.4481448558571
 30
0.0
 10
406.5677458770788
 20
997.061876562942
 30
0.0
 10
406.6601432326923
 20
997.686176292484
 30
0.0
 10
406.6708020713412
 20
998.1057333665706
 30
0.0
 10
406.6761290097099
 20
998.3154142473383
 30
0.0
 11
400.202322454159
 21
991.7971400516416
 31
0.0
 11
400.8454399477326
 21
991.8296683878738
 31
0.0
 11
401.4831230784271
 21
991.9262095072893
 31
0.0
 11
402.1100947175626
 21
992.0863268092719
 31
0.0
 11
402.7172250428823
 21
992.3076618943655
 31
0.0
 11
403.2946122438428
 21
992.5862685657789
 31
0.0
 11
403.8404843563789
 21
992.9203351546425
 31
0.0
 11
404.3505049222908
 21
993.3065734448551
 31
0.0
 11
404.8196112961211
 21
993.7404633893448
 31
0.0
 11
405.2413834591442
 21
994.2156085738552
 31
0.0
 11
405.6142099046976
 21
994.7294156614498
 31
0.0
 11
405.9354830336047
 21
995.2779915881448
 31
0.0
 11
406.2018204255842
 21
995.8548231826943
 31
0.0
 11
406.4096667759258
 21
996.4513234635833
 31
0.0
 11
406.558570987994
 21
997.064259132555
 31
0.0
 11
406.6474390907312
 21
997.6873040000089
 31
0.0
 11
406.6761290097099
 21
998.3154142473383
 31
0.0
  0
SPLINE
  5
1EE
330
1F
100
AcDbEntity
  8
0
  6
Continuous
 62
     2
100
AcDbSpline
210
0.0
220
0.0
230
1.0
 70
     8
 71
     3
 72
     9
 73
     5
 74
     3
 42
0.0000000001
 43
0.0000000001
 44
0.00000001
 40
0.0
 40
0.0
 40
0.0
 40
0.0
 40
6.178574617058841
 40
12.31947887156222
 40
12.31947887156222
 40
12.31947887156222
 40
12.31947887156222
 10
406.6424935294999
 20
1010.634835571231
 30
0.0
 10
406.6438759033117
 20
1008.575308723415
 30
0.0
 10
406.6466322226935
 20
1004.468811827346
 30
0.0
 10
406.6663168111415
 20
1000.362361221335
 30
0.0
 10
406.6761290097099
 20
998.3154142473383
 30
0.0
 11
406.6424935294999
 21
1010.634835571231
 31
0.0
 11
406.6508986393067
 21
1004.456266671179
 31
0.0
 11
406.6761290097099
 21
998.3154142473383
 31
0.0
  0
SPLINE
  5
1EF
330
1F
100
AcDbEntity
  8
0
  6
Continuous
 62
     2
100
AcDbSpline
210
0.0
220
0.0
230
1.0
 70
     8
 71
     3
 72
     9
 73
     5
 74
     3
 42
0.0000000001
 43
0.0000000001
 44
0.00000001
 40
0.0
 40
0.0
 40
0.0
 40
0.0
 40
6.412700964384761
 40
12.7863142515831
 40
12.7863142515831
 40
12.7863142515831
 40
12.7863142515831
 10
403.644321023585
 20
1010.635103957077
 30
0.0
 10
403.6456984207472
 20
1008.49753506362
 30
0.0
 10
403.6484448193493
 20
1004.235426514048
 30
0.0
 10
403.6681151085252
 20
999.9733625048032
 30
0.0
 10
403.6779201871418
 20
997.848845050772
 30
0.0
 11
403.644321023585
 21
1010.635103957077
 31
0.0
 11
403.6527100953644
 21
1004.222408479971
 31
0.0
 11
403.6779201871418
 21
997.848845050772
 31
0.0
  0
SPLINE
  5
1F0
330
1F
100
AcDbEntity
  8
0
  6
Continuous
 62
     2
100
AcDbSpline
210
0.0
220
0.0
230
1.0
 70
     8
 71
     3
 72
    18
 73
    14
 74
    12
 42
0.0000000001
 43
0.0000000001
 44
0.00000001
 40
0.0
 40
0.0
 40
0.0
 40
0.0
 40
0.4567189110873739
 40
0.9045527813200032
 40
1.187851363605642
 40
1.451562726560656
 40
1.689827803395982
 40
1.897624958044175
 40
2.071165734863828
 40
2.208078147898033
 40
2.307483468756201
 40
2.369986725386064
 40
2.397437221071531
 40
2.397437221071531
 40
2.397437221071531
 40
2.397437221071531
 10
400.2014009310469
 20
1033.875632611765
 30
0.0
 10
400.2014864103539
 20
1034.027872226018
 30
0.0
 10
400.2016557060476
 20
1034.329389774681
 30
0.0
 10
400.2017262541722
 20
1034.725340231429
 30
0.0
 10
400.2017338236367
 20
1035.056954835249
 30
0.0
 10
400.2017132848063
 20
1035.318713178629
 30
0.0
 10
400.2016863332734
 20
1035.555304365276
 30
0.0
 10
400.2016641582489
 20
1035.761838730254
 30
0.0
 10
400.2016826872444
 20
1035.934588761804
 30
0.0
 10
400.2017034831216
 20
1036.071208481292
 30
0.0
 10
400.2018677976747
 20
1036.170814928033
 30
0.0
 10
400.2019065482486
 20
1036.233935434211
 30
0.0
 10
400.2022254021435
 20
1036.263918431571
 30
0.0
 10
400.2023227043378
 20
1036.273068112585
 30
0.0
 11
400.2014009310469
 21
1033.875632611765
 31
0.0
 11
400.2016279053022
 21
1034.332351466453
 31
0.0
 11
400.2017218217679
 21
1034.780185326838
 31
0.0
 11
400.2017290188188
 21
1035.063483909032
 31
0.0
 11
400.2017109821272
 21
1035.32719527137
 31
0.0
 11
400.201685454166
 21
1035.565460346838
 31
0.0
 11
400.201671033096
 21
1035.773257500986
 31
0.0
 11
400.2016854505948
 21
1035.946798277207
 31
0.0
 11
400.201744978355
 21
1036.0837106773
 31
0.0
 11
400.2018670192262
 21
1036.183115923243
 31
0.0
 11
400.2020587764727
 21
1036.24561888572
 31
0.0
 11
400.2023227043378
 21
1036.273068112585
 31
0.0
  0
SPLINE
  5
1F1
330
1F
100
AcDbEntity
  8
0
  6
Continuous
 62
     2
100
AcDbSpline
210
0.0
220
0.0
230
1.0
 70
     8
 71
     3
 72
    19
 73
    15
 74
    13
 42
0.0000000001
 43
0.0000000001
 44
0.00000001
 40
0.0
 40
0.0
 40
0.0
 40
0.0
 40
0.3524685846252931
 40
0.6921077886854724
 40
1.01268753995829
 40
1.258127440674582
 40
1.484487727110274
 40
1.689824399727297
 40
1.895671835548239
 40
2.069247696234254
 40
2.208074021859159
 40
2.305320841962624
 40
2.368662679867853
 40
2.397431079220966
 40
2.397431079220966
 40
2.397431079220966
 40
2.397431079220966
 10
317.1340752987571
 20
1033.875636774809
 30
0.0
 10
317.1340753262687
 20
1033.993126303017
 30
0.0
 10
317.1340753802903
 20
1034.223828899246
 30
0.0
 10
317.1340754177779
 20
1034.561391412565
 30
0.0
 10
317.1340754354572
 20
1034.863277697915
 30
0.0
 10
317.134075443325
 20
1035.127404344057
 30
0.0
 10
317.1340754462528
 20
1035.353116630646
 30
0.0
 10
317.1340754467119
 20
1035.565631428937
 30
0.0
 10
317.1340754470111
 20
1035.760551418645
 30
0.0
 10
317.1340754447363
 20
1035.93330129269
 30
0.0
 10
317.1340754375024
 20
1036.069850961494
 30
0.0
 10
317.1340754236706
 20
1036.169655956039
 30
0.0
 10
317.1340754082742
 20
1036.23277497516
 30
0.0
 10
317.1340754014565
 20
1036.263478387579
 30
0.0
 10
317.1340753993272
 20
1036.27306785403
 30
0.0
 11
317.1340752987571
 21
1033.875636774809
 31
0.0
 11
317.1340753739257
 21
1034.228105359434
 31
0.0
 11
317.1340754154264
 21
1034.567744563494
 31
0.0
 11
317.1340754351825
 21
1034.888324314767
 31
0.0
 11
317.1340754427987
 21
1035.133764215484
 31
0.0
 11
317.134075445916
 21
1035.360124501919
 31
0.0
 11
317.1340754466902
 21
1035.565461174536
 31
0.0
 11
317.1340754464803
 21
1035.771308610357
 31
0.0
 11
317.134075443304
 21
1035.944884471043
 31
0.0
 11
317.1340754344384
 21
1036.083710796668
 31
0.0
 11
317.1340754200365
 21
1036.180957616772
 31
0.0
 11
317.1340754057807
 21
1036.244299454677
 31
0.0
 11
317.1340753993272
 21
1036.27306785403
 31
0.0
  0
SPLINE
  5
1F2
330
1F
100
AcDbEntity
  8
0
  6
Continuous
 62
     2
100
AcDbSpline
210
0.0
220
0.0
230
1.0
 70
     8
 71
     3
 72
    15
 73
    11
 74
     9
 42
0.0000000001
 43
0.0000000001
 44
0.00000001
 40
0.0
 40
0.0
 40
0.0
 40
0.0
 40
0.6945591236532597
 40
1.391080076783637
 40
2.089460443543
 40
2.78502701400992
 40
3.487203937429383
 40
4.188864325389622
 40
4.894168791989793
 40
5.597349695365858
 40
5.597349695365858
 40
5.597349695365858
 40
5.597349695365858
 10
317.1340752987571
 20
1033.875636774809
 30
0.0
 10
316.9021971506242
 20
1033.861274764271
 30
0.0
 10
316.4377858987604
 20
1033.832510176718
 30
0.0
 10
315.7697456745126
 20
1033.610321269739
 30
0.0
 10
315.1603684465869
 20
1033.264397828333
 30
0.0
 10
314.6315204310127
 20
1032.800380361082
 30
0.0
 10
314.2028118238625
 20
1032.241361437557
 30
0.0
 10
313.8898464444984
 20
1031.607999997127
 30
0.0
 10
313.6927187981082
 20
1030.926383193853
 30
0.0
 10
313.6698798661658
 20
1030.456132655957
 30
0.0
 10
313.658477617241
 20
1030.22136188368
 30
0.0
 11
317.1340752987571
 21
1033.875636774809
 31
0.0
 11
316.4433411301757
 21
1033.802844710653
 31
0.0
 11
315.7801536587548
 21
1033.589950803037
 31
0.0
 11
315.1732657537419
 21
1033.244375619576
 31
0.0
 11
314.6498351026792
 21
1032.78630007179
 31
0.0
 11
314.2223112237054
 21
1032.229276046554
 31
0.0
 11
313.9096210312547
 21
1031.601142188545
 31
0.0
 11
313.7197875329793
 21
1030.921864900879
 31
0.0
 11
313.658477617241
 21
1030.22136188368
 31
0.0
  0
SPLINE
  5
1F3
330
1F
100
AcDbEntity
  8
0
  6
Continuous
 62
     2
100
AcDbSpline
210
0.0
220
0.0
230
1.0
 70
     8
 71
     3
 72
    23
 73
    19
 74
    17
 42
0.0000000001
 43
0.0000000001
 44
0.00000001
 40
0.0
 40
0.0
 40
0.0
 40
0.0
 40
0.6439417646909694
 40
1.288893591264115
 40
1.935990298105009
 40
2.582209359085748
 40
3.223300003128619
 40
3.86328108114444
 40
4.50304667511628
 40
5.142046408092293
 40
5.777385233075641
 40
6.412206756204789
 40
7.047937219814858
 40
7.683288261228378
 40
8.314960731562014
 40
8.94572166800035
 40
9.575070028447765
 40
10.20383253764369
 40
10.20383253764369
 40
10.20383253764369
 40
10.20383253764369
 10
317.1340753993272
 20
1036.27306785403
 30
0.0
 10
316.9193441473664
 20
1036.266731902836
 30
0.0
 10
316.4895448243962
 20
1036.254050062123
 30
0.0
 10
315.8504257217907
 20
1036.153639137189
 30
0.0
 10
315.2234184982585
 20
1035.994393768639
 30
0.0
 10
314.6165521384742
 20
1035.77307555442
 30
0.0
 10
314.0369981857502
 20
1035.493479489246
 30
0.0
 10
313.4900015248231
 20
1035.158639461493
 30
0.0
 10
312.9793746644294
 20
1034.771803419055
 30
0.0
 10
312.5101512777147
 20
1034.337947510268
 30
0.0
 10
312.0869952677327
 20
1033.861252881063
 30
0.0
 10
311.7133162148853
 20
1033.346214756089
 30
0.0
 10
311.391846092093
 20
1032.797075489126
 30
0.0
 10
311.1255359413155
 20
1032.220372008915
 30
0.0
 10
310.9168256085821
 20
1031.622056233205
 30
0.0
 10
310.7686506566753
 20
1031.008326741236
 30
0.0
 10
310.6762543481699
 20
1030.384029444406
 30
0.0
 10
310.6655956888555
 20
1029.964474066154
 30
0.0
 10
310.6602688408511
 20
1029.754794061997
 30
0.0
 11
317.1340753993272
 21
1036.27306785403
 31
0.0
 11
316.4909557387012
 21
1036.240539429081
 31
0.0
 11
315.8532704190346
 21
1036.143997771328
 31
0.0
 11
315.2262965747854
 21
1035.983879232015
 31
0.0
 11
314.6191646552585
 21
1035.762542594591
 31
0.0
 11
314.0417782012098
 21
1035.483935170855
 31
0.0
 11
313.4959072804374
 21
1035.149868234339
 31
0.0
 11
312.9858877068206
 21
1034.763629901495
 31
0.0
 11
312.5167820021721
 21
1034.329739942393
 31
0.0
 11
312.0950098454359
 21
1033.854593996043
 31
0.0
 11
311.7221835259202
 21
1033.340785761675
 31
0.0
 11
311.4009108552841
 21
1032.792208425774
 31
0.0
 11
311.1345741113144
 21
1032.215375967744
 31
0.0
 11
310.9267288530186
 21
1031.618877469522
 31
0.0
 11
310.7778255856815
 21
1031.005944213846
 31
0.0
 11
310.6889583559837
 21
1030.38290169982
 31
0.0
 11
310.6602688408511
 21
1029.754794061997
 31
0.0
  0
SPLINE
  5
1F4
330
1F
100
AcDbEntity
  8
0
  6
Continuous
 62
     2
100
AcDbSpline
210
0.0
220
0.0
230
1.0
 70
     8
 71
     3
 72
    15
 73
    11
 74
     9
 42
0.0000000001
 43
0.0000000001
 44
0.00000001
 40
0.0
 40
0.0
 40
0.0
 40
0.0
 40
0.7029349598314655
 40
1.407986382617652
 40
2.108605500644066
 40
2.809757930808481
 40
3.50614520701982
 40
4.205330283370897
 40
4.902334005503844
 40
5.597402977179051
 40
5.597402977179051
 40
5.597402977179051
 40
5.597402977179051
 10
403.677895694698
 20
1030.22223072868
 30
0.0
 10
403.6664620566289
 20
1030.456917505354
 30
0.0
 10
403.6435603550136
 20
1030.926997675811
 30
0.0
 10
403.446491733429
 20
1031.608091274742
 30
0.0
 10
403.1338929845634
 20
1032.24075510437
 30
0.0
 10
402.7056236615107
 20
1032.7995624399
 30
0.0
 10
402.1768154110739
 20
1033.263944049693
 30
0.0
 10
401.5668655613927
 20
1033.610333158849
 30
0.0
 10
400.8981909733683
 20
1033.83254494116
 30
0.0
 10
400.4334489736879
 20
1033.861283368781
 30
0.0
 10
400.2014009310469
 20
1033.875632611765
 30
0.0
 11
403.677895694698
 21
1030.22223072868
 31
0.0
 11
403.6165045066068
 21
1030.922479741373
 31
0.0
 11
403.4266574121285
 21
1031.601490484654
 31
0.0
 11
403.1144524975209
 21
1032.228702761191
 31
0.0
 11
402.687734295033
 21
1032.785053645069
 31
0.0
 11
402.1638728128211
 21
1033.243883009783
 31
0.0
 11
401.5563331299625
 21
1033.589939803885
 31
0.0
 11
400.8926511557981
 21
1033.802872717819
 31
0.0
 11
400.2014009310469
 21
1033.875632611765
 31
0.0
  0
SPLINE
  5
1F5
330
1F
100
AcDbEntity
  8
0
  6
Continuous
 62
     2
100
AcDbSpline
210
0.0
220
0.0
230
1.0
 70
     8
 71
     3
 72
    19
 73
    15
 74
    13
 42
0.0000000001
 43
0.0000000001
 44
0.00000001
 40
0.0
 40
0.0
 40
0.0
 40
0.0
 40
0.5358637781336063
 40
1.083870222733592
 40
1.441042280834217
 40
1.779949877641181
 40
2.091075140307973
 40
2.365935281900716
 40
2.597977449827831
 40
2.784125841182436
 40
2.923888161223046
 40
3.020795303092846
 40
3.056001552434176
 40
3.085193669324092
 40
3.085193669324092
 40
3.085193669324092
 40
3.085193669324092
 10
403.677895694698
 20
1030.22223072868
 30
0.0
 10
403.8565135066517
 20
1030.219957499421
 30
0.0
 10
404.2177966079296
 20
1030.215359529558
 30
0.0
 10
404.6976724885606
 20
1030.191363683491
 30
0.0
 10
405.1111533515814
 20
1030.159250148574
 30
0.0
 10
405.4451149760449
 20
1030.124341926988
 30
0.0
 10
405.7506853160501
 20
1030.082967955647
 30
0.0
 10
406.0193136634166
 20
1030.035635872805
 30
0.0
 10
406.2446653536463
 20
1029.984250655845
 30
0.0
 10
406.4229551575588
 20
1029.93054642885
 30
0.0
 10
406.5532188599589
 20
1029.875764057142
 30
0.0
 10
406.6298462616181
 20
1029.825787744598
 30
0.0
 10
406.6658000728756
 20
1029.784489965694
 30
0.0
 10
406.6729073763139
 20
1029.764056436892
 30
0.0
 10
406.676129154208
 20
1029.754793811205
 30
0.0
 11
403.677895694698
 21
1030.22223072868
 31
0.0
 11
404.2136641429352
 21
1030.212123375457
 31
0.0
 11
404.7610061875359
 21
1030.185146542147
 31
0.0
 11
405.1170799091109
 21
1030.157157546246
 31
0.0
 11
405.4541168988895
 21
1030.121598768224
 31
0.0
 11
405.762336521912
 21
1030.079177157536
 31
0.0
 11
406.0328936012155
 21
1030.030731680191
 31
0.0
 11
406.2588650147824
 21
1029.978001347868
 31
0.0
 11
406.4365592535439
 21
1029.922539819627
 31
0.0
 11
406.5642563724242
 21
1029.865733552959
 31
0.0
 11
406.643045828793
 21
1029.809313559069
 31
0.0
 11
406.6649747444355
 21
1029.781770816805
 31
0.0
 11
406.676129154208
 21
1029.754793811205
 31
0.0
  0
SPLINE
  5
1F6
330
1F
100
AcDbEntity
  8
0
  6
Continuous
 62
     2
100
AcDbSpline
210
0.0
220
0.0
230
1.0
 70
     8
 71
     3
 72
    20
 73
    16
 74
    14
 42
0.0000000001
 43
0.0000000001
 44
0.00000001
 40
0.0
 40
0.0
 40
0.0
 40
0.0
 40
0.0954018155315653
 40
0.187303340193172
 40
0.2316067335332239
 40
0.2696900785383781
 40
0.3016243210715877
 40
0.3274804069221853
 40
0.3473292818031197
 40
0.3904130100919171
 40
0.4270464365888265
 40
0.4567728745046963
 40
0.4789917279453662
 40
0.4933651259563352
 40
0.4996956314332814
 40
0.4996956314332814
 40
0.4996956314332814
 40
0.4996956314332814
 10
407.7051869002148
 20
1030.284206883994
 30
0.0
 10
407.6733862961588
 20
1030.284215419678
 30
0.0
 10
407.6109518516291
 20
1030.284232177873
 30
0.0
 10
407.5337496076471
 20
1030.284243035781
 30
0.0
 10
407.4756535200645
 20
1030.284246538148
 30
0.0
 10
407.437546526411
 20
1030.284246465258
 30
0.0
 10
407.4055886353259
 20
1030.28424449421
 30
0.0
 10
407.3797089010725
 20
1030.284241376763
 30
0.0
 10
407.3501126718558
 20
1030.284236213656
 30
0.0
 10
407.3169239962529
 20
1030.284227387789
 30
0.0
 10
407.2804428019425
 20
1030.284212533242
 30
0.0
 10
407.2509165680665
 20
1030.284191600169
 30
0.0
 10
407.2288103501918
 20
1030.284173075722
 30
0.0
 10
407.2145027740576
 20
1030.284147373371
 30
0.0
 10
407.2076014741143
 20
1030.284153951606
 30
0.0
 10
407.2054913059949
 20
1030.284155962993
 30
0.0
 11
407.7051869002148
 21
1030.284206883994
 31
0.0
 11
407.6097850875868
 21
1030.284230421495
 31
0.0
 11
407.517883563871
 21
1030.284243606283
 31
0.0
 11
407.4735801706051
 21
1030.2842461692
 31
0.0
 11
407.4354968256001
 21
1030.28424604869
 31
0.0
 11
407.4035625831311
 21
1030.284244023482
 31
0.0
 11
407.3777064974726
 21
1030.284240872302
 31
0.0
 11
407.3578576228999
 21
1030.28423737388
 31
0.0
 11
407.3147738961874
 21
1030.284225719653
 31
0.0
 11
407.278140473254
 21
1030.284209561444
 31
0.0
 11
407.248414042384
 21
1030.284189094424
 31
0.0
 11
407.2261952003563
 21
1030.284166574088
 31
0.0
 11
407.2118218100384
 21
1030.284151702913
 31
0.0
 11
407.2054913059949
 21
1030.284155962993
 31
0.0
  0
SPLINE
  5
1F7
330
1F
100
AcDbEntity
  8
0
  6
Continuous
 62
     2
100
AcDbSpline
210
0.0
220
0.0
230
1.0
 70
     8
 71
     3
 72
    31
 73
    27
 74
    25
 42
0.0000000001
 43
0.0000000001
 44
0.00000001
 40
0.0
 40
0.0
 40
0.0
 40
0.0
 40
0.0408534809198863
 40
0.0782171694316232
 40
0.1118175096865841
 40
0.141380945834687
 40
0.1666339220280442
 40
0.1873028824166541
 40
0.2246561304648535
 40
0.2576816908440164
 40
0.2864206226912684
 40
0.3109139851446385
 40
0.3312028373416942
 40
0.3473282384206786
 40
0.3757583532688116
 40
0.3996304952070427
 40
0.4193062520866527
 40
0.4351472117591371
 40
0.4475149620755203
 40
0.4567710908870329
 40
0.4722154668075289
 40
0.4834307698004691
 40
0.491101619231583
 40
0.4959126344677876
 40
0.4985484348801885
 40
0.4996936398652941
 40
0.4996936398652941
 40
0.4996936398652941
 40
0.4996936398652941
 10
400.7094566867979
 20
1037.279889976625
 30
0.0
 10
400.7094566753001
 20
1037.266272149652
 30
0.0
 10
400.7094566532865
 20
1037.240199759841
 30
0.0
 10
400.7094565171456
 20
1037.202927256613
 30
0.0
 10
400.7094563337087
 20
1037.169418101641
 30
0.0
 10
400.7094561196802
 20
1037.139945850777
 30
0.0
 10
400.7094559006509
 20
1037.114784059868
 30
0.0
 10
400.7094556287871
 20
1037.087025664992
 30
0.0
 10
400.7094553149374
 20
1037.056676408722
 30
0.0
 10
400.7094549511546
 20
1037.023637161966
 30
0.0
 10
400.7094546149312
 20
1036.994884543741
 30
0.0
 10
400.7094543120056
 20
1036.970377494911
 30
0.0
 10
400.7094540479256
 20
1036.950074956336
 30
0.0
 10
400.7094537536999
 20
1036.928460166963
 30
0.0
 10
400.7094534244962
 20
1036.905650947677
 30
0.0
 10
400.7094530481713
 20
1036.881658276457
 30
0.0
 10
400.7094527103424
 20
1036.861861990297
 30
0.0
 10
400.7094524142234
 20
1036.845900501344
 30
0.0
 10
400.7094521616283
 20
1036.833412221746
 30
0.0
 10
400.7094518930328
 20
1036.821056136733
 30
0.0
 10
400.7094515922532
 20
1036.809084200827
 30
0.0
 10
400.7094513023908
 20
1036.797640691387
 30
0.0
 10
400.7094510316435
 20
1036.789741635494
 30
0.0
 10
400.7094510240265
 20
1036.784702413821
 30
0.0
 10
400.7094508930816
 20
1036.781838406911
 30
0.0
 10
400.7094512256204
 20
1036.780578071818
 30
0.0
 10
400.709451326341
 20
1036.780196336835
 30
0.0
 11
400.7094566867979
 21
1037.279889976625
 31
0.0
 11
400.70945663233
 21
1037.239036495705
 31
0.0
 11
400.709456500618
 21
1037.201672807194
 31
0.0
 11
400.7094563156908
 21
1037.168072466939
 31
0.0
 11
400.709456101578
 21
1037.138509030792
 31
0.0
 11
400.7094558823085
 21
1037.1132560546
 31
0.0
 11
400.709455681912
 21
1037.092587094212
 31
0.0
 11
400.7094552955961
 21
1037.055233846166
 31
0.0
 11
400.7094549314012
 21
1037.022208285789
 31
0.0
 11
400.7094545949324
 21
1036.993469353943
 31
0.0
 11
400.7094542917951
 21
1036.968975991492
 31
0.0
 11
400.7094540275942
 21
1036.948687139296
 31
0.0
 11
400.709453807935
 21
1036.932561738219
 31
0.0
 11
400.7094533961181
 21
1036.904131623374
 31
0.0
 11
400.7094530202104
 21
1036.880259481439
 31
0.0
 11
400.7094526831262
 21
1036.860583724562
 31
0.0
 11
400.7094523877798
 21
1036.844742764892
 31
0.0
 11
400.7094521370856
 21
1036.832375014578
 31
0.0
 11
400.709451933958
 21
1036.823118885769
 31
0.0
 11
400.7094515562218
 21
1036.807674509853
 31
0.0
 11
400.7094512526036
 21
1036.796459206864
 31
0.0
 11
400.709451050455
 21
1036.788788357436
 31
0.0
 11
400.7094509771273
 21
1036.7839773422
 31
0.0
 11
400.7094510599722
 21
1036.781341541789
 31
0.0
 11
400.709451326341
 21
1036.780196336835
 31
0.0
  0
SPLINE
  5
1F8
330
1F
100
AcDbEntity
  8
0
  6
Continuous
 62
     2
100
AcDbSpline
210
0.0
220
0.0
230
1.0
 70
     8
 71
     3
 72
    23
 73
    19
 74
    17
 42
0.0000000001
 43
0.0000000001
 44
0.00000001
 40
0.0
 40
0.0
 40
0.0
 40
0.0
 40
0.6292925423865219
 40
1.25924240494451
 40
1.89072159226922
 40
2.522767089961097
 40
3.156608848545053
 40
3.790364615530034
 40
4.423166209591713
 40
5.057052188254358
 40
5.697229229319858
 40
6.338711446163699
 40
6.980355633182947
 40
7.622753414740195
 40
8.268856378387557
 40
8.915550718815256
 40
9.560171335148178
 40
10.20385015045568
 40
10.20385015045568
 40
10.20385015045568
 40
10.20385015045568
 10
406.676129154208
 20
1029.754793811205
 30
0.0
 10
406.6707765882191
 20
1029.964650868688
 30
0.0
 10
406.6600658652811
 20
1030.38458418739
 30
0.0
 10
406.5673804774154
 20
1031.00946458913
 30
0.0
 10
406.4190336714601
 20
1031.623727279177
 30
0.0
 10
406.210385578563
 20
1032.221921859945
 30
0.0
 10
405.9443556682345
 20
1032.797614848431
 30
0.0
 10
405.6237168649358
 20
1033.345100602822
 30
0.0
 10
405.2513255208708
 20
1033.858814266875
 30
0.0
 10
404.8289643824439
 20
1034.335185674474
 30
0.0
 10
404.3596761136289
 20
1034.769680734687
 30
0.0
 10
403.8480272288052
 20
1035.157705343601
 30
0.0
 10
403.2996206435088
 20
1035.49326151154
 30
0.0
 10
402.7191462573029
 20
1035.773124899014
 30
0.0
 10
402.1121040643251
 20
1035.994703991962
 30
0.0
 10
401.4853940582339
 20
1036.154011334916
 30
0.0
 10
400.8465672992432
 20
1036.254157186872
 30
0.0
 10
400.4169662171579
 20
1036.266767543581
 30
0.0
 10
400.2023227043378
 20
1036.273068112585
 30
0.0
 11
406.676129154208
 21
1029.754793811205
 31
0.0
 11
406.6473300647776
 21
1030.383427024097
 31
0.0
 11
406.5582299513044
 21
1031.007043892949
 31
0.0
 11
406.409098555048
 21
1031.620660866862
 31
0.0
 11
406.2010922597682
 21
1032.217498275439
 31
0.0
 11
405.9352537916013
 21
1032.792898382988
 31
0.0
 11
405.6149214561156
 21
1033.33973800027
 31
0.0
 11
405.2434623520481
 21
1033.852042588823
 31
0.0
 11
404.8229482333356
 21
1034.326362428075
 31
0.0
 11
404.3532691222134
 21
1034.76136607919
 31
0.0
 11
403.8420466298437
 21
1035.148859302127
 31
0.0
 11
403.294726819657
 21
1035.4837447872
 31
0.0
 11
402.7161149403559
 21
1035.762820409355
 31
0.0
 11
402.1091278063768
 21
1035.984215212406
 31
0.0
 11
401.4825639876797
 21
1036.144313154432
 31
0.0
 11
400.8451856459421
 21
1036.240669723929
 31
0.0
 11
400.2023227043378
 21
1036.273068112585
 31
0.0
  0
SPLINE
  5
1F9
330
1F
100
AcDbEntity
  8
0
  6
Continuous
 62
     2
100
AcDbSpline
210
0.0
220
0.0
230
1.0
 70
     8
 71
     3
 72
    21
 73
    17
 74
    15
 42
0.0000000001
 43
0.0000000001
 44
0.00000001
 40
0.0
 40
0.0
 40
0.0
 40
0.0
 40
0.0599886069389629
 40
0.1118175173142965
 40
0.1545635086513253
 40
0.1873033557848953
 40
0.2449756563025801
 40
0.2985380218969671
 40
0.3473293090571643
 40
0.3811083502419048
 40
0.4196956626270001
 40
0.4567729167473469
 40
0.4704130736565336
 40
0.4836765358886007
 40
0.4942188765785357
 40
0.4996956713592108
 40
0.4996956713592108
 40
0.4996956713592108
 40
0.4996956713592108
 10
316.6269459839302
 20
1037.279891956892
 30
0.0
 10
316.6269298320816
 20
1037.259895760973
 30
0.0
 10
316.6268997253712
 20
1037.222623267119
 30
0.0
 10
316.6268751105021
 20
1037.171102102678
 30
0.0
 10
316.6268630413479
 20
1037.128663854595
 30
0.0
 10
316.6268578968123
 20
1037.084277808474
 30
0.0
 10
316.6268556110019
 20
1037.036286304083
 30
0.0
 10
316.6268574634319
 20
1036.982944319611
 30
0.0
 10
316.6268636662506
 20
1036.937566755299
 30
0.0
 10
316.6268736822739
 20
1036.897180876191
 30
0.0
 10
316.6268878160179
 20
1036.860699676317
 30
0.0
 10
316.62690565636
 20
1036.830931439799
 30
0.0
 10
316.6269265063011
 20
1036.809604491819
 30
0.0
 10
316.6269377855074
 20
1036.797122511111
 30
0.0
 10
316.6269486304419
 20
1036.787361649033
 30
0.0
 10
316.6269473546182
 20
1036.782021936962
 30
0.0
 10
316.626946918426
 20
1036.780196338617
 30
0.0
 11
316.6269459839302
 21
1037.279891956892
 31
0.0
 11
316.6269010683477
 21
1037.219903366768
 31
0.0
 11
316.6268754947798
 21
1037.168074462702
 31
0.0
 11
316.6268634522762
 21
1037.125328473061
 31
0.0
 11
316.6268591298872
 21
1037.092588626213
 31
0.0
 11
316.6268563666183
 21
1037.034916325762
 31
0.0
 11
316.6268584713489
 21
1036.981353960208
 31
0.0
 11
316.626865420048
 21
1036.932562673543
 31
0.0
 11
316.6268740175233
 21
1036.898783633452
 31
0.0
 11
316.6268894008873
 21
1036.860196324134
 31
0.0
 11
316.6269137566092
 21
1036.823119078013
 31
0.0
 11
316.6269264584863
 21
1036.809478927018
 31
0.0
 11
316.626939116083
 21
1036.796215470825
 31
0.0
 11
316.6269473843972
 21
1036.785673133378
 31
0.0
 11
316.626946918426
 21
1036.780196338617
 31
0.0
  0
SPLINE
  5
1FA
330
1F
100
AcDbEntity
  8
0
  6
Continuous
 62
     2
100
AcDbSpline
210
0.0
220
0.0
230
1.0
 70
     8
 71
     3
 72
    24
 73
    20
 74
    18
 42
0.0000000001
 43
0.0000000001
 44
0.00000001
 40
0.0
 40
0.0
 40
0.0
 40
0.0
 40
0.0271948686854309
 40
0.0604583461131526
 40
0.0988546853924743
 40
0.1414481396324267
 40
0.187302961942503
 40
0.2123838190978421
 40
0.2421777847757594
 40
0.2754338676046857
 40
0.3109010762128337
 40
0.3473284192288848
 40
0.3719650040422356
 40
0.4001947284048669
 40
0.4293520438734444
 40
0.4567714020045094
 40
0.4789900481150912
 40
0.4933631881914849
 40
0.4996934123814467
 40
0.4996934123814467
 40
0.4996934123814467
 40
0.4996934123814467
 10
309.6312125677321
 20
1030.28416110941
 30
0.0
 10
309.6402775239604
 20
1030.284161055749
 30
0.0
 10
309.6604303059978
 20
1030.284160936452
 30
0.0
 10
309.6933818677946
 20
1030.284160727379
 30
0.0
 10
309.7314662914428
 20
1030.284160470987
 30
0.0
 10
309.7737478300515
 20
1030.284160165646
 30
0.0
 10
309.8115908746188
 20
1030.284159871101
 30
0.0
 10
309.8451674229988
 20
1030.284159593038
 30
0.0
 10
309.8745443915517
 20
1030.284159337481
 30
0.0
 10
309.9073834772553
 20
1030.284159034488
 30
0.0
 10
309.9424336887379
 20
1030.284158687843
 30
0.0
 10
309.9746107342153
 20
1030.284158342944
 30
0.0
 10
310.0043752849439
 20
1030.2841579961
 30
0.0
 10
310.0317164931567
 20
1030.284157652763
 30
0.0
 10
310.0599852924743
 20
1030.284157247064
 30
0.0
 10
310.0862503990422
 20
1030.284156841986
 30
0.0
 10
310.1075874471403
 20
1030.284156346265
 30
0.0
 10
310.1218947839349
 20
1030.284156087553
 30
0.0
 10
310.1287959053419
 20
1030.284155621262
 30
0.0
 10
310.1309059800672
 20
1030.28415547869
 30
0.0
 11
309.6312125677321
 21
1030.28416110941
 31
0.0
 11
309.6584074364171
 21
1030.284160946693
 31
0.0
 11
309.6916709138441
 21
1030.284160736241
 31
0.0
 11
309.7300672531226
 21
1030.284160477436
 31
0.0
 11
309.7726607073614
 21
1030.284160169656
 31
0.0
 11
309.8185155296701
 21
1030.284159812282
 31
0.0
 11
309.8435963868246
 21
1030.284159604452
 31
0.0
 11
309.8733903525014
 21
1030.284159345045
 31
0.0
 11
309.9066464353289
 21
1030.28415903773
 31
0.0
 11
309.9421136439353
 21
1030.284158686175
 31
0.0
 11
309.9785409869492
 21
1030.28415829405
 31
0.0
 11
310.0031775717609
 21
1030.284158006595
 31
0.0
 11
310.0314072961212
 21
1030.284157648342
 31
0.0
 11
310.0605646115869
 21
1030.284157233384
 31
0.0
 11
310.0879839697141
 21
1030.284156775818
 31
0.0
 11
310.1102026158198
 21
1030.284156308669
 31
0.0
 11
310.1245757558896
 21
1030.28415587448
 31
0.0
 11
310.1309059800672
 21
1030.28415547869
 31
0.0
  0
SPLINE
  5
1FB
330
1F
100
AcDbEntity
  8
0
  6
Continuous
 62
     2
100
AcDbSpline
210
0.0
220
0.0
230
1.0
 70
     8
 71
     3
 72
    19
 73
    15
 74
    13
 42
0.0000000001
 43
0.0000000001
 44
0.00000001
 40
0.0
 40
0.0
 40
0.0
 40
0.0
 40
0.0292390934664526
 40
0.0645257394788834
 40
0.1612397150868349
 40
0.3006985402752997
 40
0.4867448345967303
 40
0.7187099641515343
 40
0.9935151142748782
 40
1.304607034828037
 40
1.643501759170757
 40
2.00067212068728
 40
2.548689726409195
 40
3.084560397180422
 40
3.084560397180422
 40
3.084560397180422
 40
3.084560397180422
 10
310.6602688408511
 20
1029.754794061997
 30
0.0
 10
310.6635051629253
 20
1029.764069133205
 30
0.0
 10
310.6706471789825
 20
1029.784537648385
 30
0.0
 10
310.7067098443814
 20
1029.825722640819
 30
0.0
 10
310.7833337762896
 20
1029.875425972174
 30
0.0
 10
310.9135262886162
 20
1029.929864468133
 30
0.0
 10
311.091752642082
 20
1029.983209884315
 30
0.0
 10
311.3171001334348
 20
1030.034256749646
 30
0.0
 10
311.5857235236135
 20
1030.081288811265
 30
0.0
 10
311.8912880991093
 20
1030.122443820328
 30
0.0
 10
312.2252437943213
 20
1030.157241748083
 30
0.0
 10
312.6387198288926
 20
1030.189392099491
 30
0.0
 10
313.1185812302954
 20
1030.213670124346
 30
0.0
 10
313.4798617562154
 20
1030.21881719131
 30
0.0
 10
313.658477617241
 20
1030.22136188368
 30
0.0
 11
310.6602688408511
 21
1029.754794061997
 31
0.0
 11
310.6714746392001
 21
1029.781800629163
 31
0.0
 11
310.6935239293352
 21
1029.809350151688
 31
0.0
 11
310.7723014812224
 21
1029.865454433134
 31
0.0
 11
310.8998392171241
 21
1029.921871539086
 31
0.0
 11
311.0775322999477
 21
1029.976993149616
 31
0.0
 11
311.3035038238651
 21
1030.029382954996
 31
0.0
 11
311.5740590343
 21
1030.077525956989
 31
0.0
 11
311.8822755727936
 21
1030.119724872051
 31
0.0
 11
312.2193112220384
 21
1030.155173501439
 31
0.0
 11
312.5753808916111
 21
1030.183192380008
 31
0.0
 11
313.1227165855113
 21
1030.210522479969
 31
0.0
 11
313.658477617241
 21
1030.22136188368
 31
0.0
  0
SPLINE
  5
1FC
330
1F
100
AcDbEntity
  8
0
  6
Continuous
 62
     2
100
AcDbSpline
210
0.0
220
0.0
230
1.0
 70
     8
 71
     3
 72
     9
 73
     5
 74
     3
 42
0.0000000001
 43
0.0000000001
 44
0.00000001
 40
0.0
 40
0.0
 40
0.0
 40
0.0
 40
6.412700470091866
 40
12.78631327210837
 40
12.78631327210837
 40
12.78631327210837
 40
12.78631327210837
 10
313.6920768252121
 20
1017.435103956969
 30
0.0
 10
313.6906994203312
 20
1019.572672685657
 30
0.0
 10
313.6879530063372
 20
1023.834780908727
 30
0.0
 10
313.6682827029476
 20
1028.096844591411
 30
0.0
 10
313.658477617241
 20
1030.22136188368
 30
0.0
 11
313.6920768252121
 21
1017.435103956969
 31
0.0
 11
313.6836877305768
 21
1023.847798939752
 31
0.0
 11
313.658477617241
 21
1030.22136188368
 31
0.0
  0
SPLINE
  5
1FD
330
1F
100
AcDbEntity
  8
0
  6
Continuous
 62
     2
100
AcDbSpline
210
0.0
220
0.0
230
1.0
 70
     8
 71
     3
 72
     9
 73
     5
 74
     3
 42
0.0000000001
 43
0.0000000001
 44
0.00000001
 40
0.0
 40
0.0
 40
0.0
 40
0.0
 40
6.178574665234605
 40
12.31947926692894
 40
12.31947926692894
 40
12.31947926692894
 40
12.31947926692894
 10
310.6939043192972
 20
1017.435372342729
 30
0.0
 10
310.6925219454968
 20
1019.494899206603
 30
0.0
 10
310.689765626071
 20
1023.601396234459
 30
0.0
 10
310.6700810389819
 20
1027.707846972267
 30
0.0
 10
310.6602688408511
 20
1029.754794061997
 30
0.0
 11
310.6939043192972
 21
1017.435372342729
 31
0.0
 11
310.6854992100846
 21
1023.613941290958
 31
0.0
 11
310.6602688408511
 21
1029.754794061997
 31
0.0
  0
SPLINE
  5
1FE
330
1F
100
AcDbEntity
  8
0
  6
Continuous
 62
     2
100
AcDbSpline
210
0.0
220
0.0
230
1.0
 70
     8
 71
     3
 72
    19
 73
    15
 74
    13
 42
0.0000000001
 43
0.0000000001
 44
0.00000001
 40
0.0
 40
0.0
 40
0.0
 40
0.0
 40
0.5358637852257883
 40
1.08387024000971
 40
1.441042302094151
 40
1.779949898770442
 40
2.091075153396999
 40
2.365935277612062
 40
2.597977419963919
 40
2.784125773520653
 40
2.923887982530625
 40
3.020795045758821
 40
3.056001313892503
 40
3.085193436082589
 40
3.085193436082589
 40
3.085193436082589
 40
3.085193436082589
 10
313.658502173507
 20
997.8479774568435
 30
0.0
 10
313.4798843608211
 20
997.8502507968647
 30
0.0
 10
313.1186012570859
 20
997.8548489907761
 30
0.0
 10
312.6387253780488
 20
997.8788449667852
 30
0.0
 10
312.2252445132347
 20
997.9109585348463
 30
0.0
 10
311.8912828878665
 20
997.9458667291747
 30
0.0
 10
311.5857125473007
 20
997.987240629066
 30
0.0
 10
311.3170841991962
 20
998.0345726058506
 30
0.0
 10
311.0917325084861
 20
998.0859576974746
 30
0.0
 10
310.9134427251233
 20
998.1396617865498
 30
0.0
 10
310.7831790471753
 20
998.1944440210691
 30
0.0
 10
310.706551645431
 20
998.2444202192305
 30
0.0
 10
310.6705977936871
 20
998.2857179428438
 30
0.0
 10
310.6634904773473
 20
998.3061514764124
 30
0.0
 10
310.6602686942251
 20
998.3154141024764
 30
0.0
 11
313.658502173507
 21
997.8479774568435
 31
0.0
 11
313.1227337238624
 21
997.8580851114676
 31
0.0
 11
312.5753916769311
 21
997.8850621043658
 31
0.0
 11
312.2193179535419
 21
997.9130511280257
 31
0.0
 11
311.882280961021
 21
997.9486098788104
 31
0.0
 11
311.5740613360752
 21
997.991031416556
 31
0.0
 11
311.3035042552057
 21
998.0394767865605
 31
0.0
 11
311.0775328384044
 21
998.0922069924777
 31
0.0
 11
310.8998385981042
 21
998.1476683889263
 31
0.0
 11
310.7721415326187
 21
998.2044745024506
 31
0.0
 11
310.6933520792802
 21
998.2608943654966
 31
0.0
 11
310.6714231218794
 21
998.2884370985348
 31
0.0
 11
310.6602686942251
 21
998.3154141024764
 31
0.0
  0
SPLINE
  5
1FF
330
1F
100
AcDbEntity
  8
0
  6
Continuous
 62
     2
100
AcDbSpline
210
0.0
220
0.0
230
1.0
 70
     8
 71
     3
 72
    23
 73
    19
 74
    17
 42
0.0000000001
 43
0.0000000001
 44
0.00000001
 40
0.0
 40
0.0
 40
0.0
 40
0.0
 40
0.6292925021523957
 40
1.259242332860004
 40
1.890721509226265
 40
2.522766957626695
 40
3.156608394970648
 40
3.790363752283248
 40
4.423164914228114
 40
5.057050584579235
 40
5.697227897155494
 40
6.338710504644756
 40
6.980355062544262
 40
7.622753138964329
 40
8.26885617703733
 40
8.915550568758723
 40
9.560171203347437
 40
10.20384973792067
 40
10.20384973792067
 40
10.20384973792067
 40
10.20384973792067
 10
310.6602686942251
 20
998.3154141024764
 30
0.0
 10
310.6656212584908
 20
998.1055570583717
 30
0.0
 10
310.6763319780522
 20
997.6856237636293
 30
0.0
 10
310.769017368165
 20
997.0607433892807
 30
0.0
 10
310.9173642023054
 20
996.4464807375582
 30
0.0
 10
311.1260122494008
 20
995.8482862782416
 30
0.0
 10
311.39204196785
 20
995.2725934906084
 30
0.0
 10
311.7126804728471
 20
994.7251080112874
 30
0.0
 10
312.0850715153163
 20
994.2113946016204
 30
0.0
 10
312.5074324888099
 20
993.7350232581771
 30
0.0
 10
312.9767207609551
 20
993.3005280293844
 30
0.0
 10
313.4883698310518
 20
992.9125030938159
 30
0.0
 10
314.0367766578482
 20
992.5769466415342
 30
0.0
 10
314.6172512490707
 20
992.2970831024203
 30
0.0
 10
315.2242935981511
 20
992.0755040192576
 30
0.0
 10
315.8510036628495
 20
991.9161967283724
 30
0.0
 10
316.4898303345732
 20
991.8160507882804
 30
0.0
 10
316.9194313284775
 20
991.803440389457
 30
0.0
 10
317.1340747473562
 20
991.7971398008756
 30
0.0
 11
310.6602686942251
 21
998.3154141024764
 31
0.0
 11
310.6890677793269
 21
997.6867809296622
 31
0.0
 11
310.7781678974574
 21
997.0631640936501
 31
0.0
 11
310.9272993152986
 21
996.4495471362599
 31
0.0
 11
311.1353055863179
 21
995.8527097714273
 31
0.0
 11
311.4011438496522
 21
995.2773099231116
 31
0.0
 11
311.7214758842907
 21
994.7304706043838
 31
0.0
 11
312.0929346561708
 21
994.2181663087233
 31
0.0
 11
312.5134484990745
 21
993.7438466369798
 31
0.0
 11
312.9831277244992
 21
993.3088427097082
 31
0.0
 11
313.4943504440829
 21
992.9213491398355
 31
0.0
 11
314.0416705135958
 21
992.5864633679812
 31
0.0
 11
314.6202826418817
 21
992.3073875833121
 31
0.0
 11
315.2272698617415
 21
992.0859927985181
 31
0.0
 11
315.8538337393815
 21
991.9258948799784
 31
0.0
 11
316.4912120896153
 21
991.8295382445515
 31
0.0
 11
317.1340747473562
 21
991.7971398008756
 31
0.0
  0
SPLINE
  5
200
330
1F
100
AcDbEntity
  8
0
  6
Continuous
 62
     2
100
AcDbSpline
210
0.0
220
0.0
230
1.0
 70
     8
 71
     3
 72
     9
 73
     5
 74
     3
 42
0.0000000001
 43
0.0000000001
 44
0.00000001
 40
0.0
 40
0.0
 40
0.0
 40
0.0
 40
6.140904253668676
 40
12.31947902386391
 40
12.31947902386391
 40
12.31947902386391
 40
12.31947902386391
 10
310.6602686942251
 20
998.3154141024764
 30
0.0
 10
310.6700809198056
 20
1000.362361076066
 30
0.0
 10
310.6897655626893
 20
1004.468811732585
 30
0.0
 10
310.6925219346555
 20
1008.575308679387
 30
0.0
 10
310.6939043348571
 20
1010.634835578231
 30
0.0
 11
310.6602686942251
 21
998.3154141024764
 31
0.0
 11
310.6854991453095
 21
1004.456266525151
 31
0.0
 11
310.6939043348571
 21
1010.634835578231
 31
0.0
  0
SPLINE
  5
201
330
1F
100
AcDbEntity
  8
0
  6
Continuous
 62
     2
100
AcDbSpline
210
0.0
220
0.0
230
1.0
 70
     8
 71
     3
 72
    24
 73
    20
 74
    18
 42
0.0000000001
 43
0.0000000001
 44
0.00000001
 40
0.0
 40
0.0
 40
0.0
 40
0.0
 40
0.0271949471955496
 40
0.0604584954182734
 40
0.0988549068639735
 40
0.1414484403875189
 40
0.1873033533612933
 40
0.2316067472319217
 40
0.269690092518394
 40
0.3016243350677471
 40
0.3274804206524881
 40
0.3473292949700473
 40
0.3719659876981209
 40
0.4001958477942206
 40
0.4293533294544573
 40
0.4567728877356592
 40
0.478991741423257
 40
0.4933651393260534
 40
0.4996956446641311
 40
0.4996956446641311
 40
0.4996956446641311
 40
0.4996956446641311
 10
309.6312109634521
 20
997.7860511940362
 30
0.0
 10
309.6402759385921
 20
997.7860395460573
 30
0.0
 10
309.6604287542618
 20
997.7860136508328
 30
0.0
 10
309.6933803857859
 20
997.7859937970587
 30
0.0
 10
309.7314648800704
 20
997.7859783145839
 30
0.0
 10
309.7737464987227
 20
997.785969133739
 30
0.0
 10
309.8179971118429
 20
997.7859639102593
 30
0.0
 10
309.8607443291856
 20
997.7859613857062
 30
0.0
 10
309.898851323108
 20
997.7859614461102
 30
0.0
 10
309.9308092142068
 20
997.7859634221913
 30
0.0
 10
309.9566889481843
 20
997.7859665319496
 30
0.0
 10
309.980136165379
 20
997.7859706438935
 30
0.0
 10
310.0043746404318
 20
997.785976340919
 30
0.0
 10
310.0317159838884
 20
997.7859853908789
 30
0.0
 10
310.0599849475512
 20
997.7859979939651
 30
0.0
 10
310.0862502402925
 20
997.7860169987135
 30
0.0
 10
310.1075874987316
 20
997.7860348320972
 30
0.0
 10
310.1218950748685
 20
997.7860605411549
 30
0.0
 10
310.1287963747291
 20
997.786053962552
 30
0.0
 10
310.1309065428022
 20
997.7860519510532
 30
0.0
 11
309.6312109634521
 21
997.7860511940362
 31
0.0
 11
309.6584058916303
 21
997.7860190327318
 31
0.0
 11
309.6916694317652
 21
997.7859958366203
 31
0.0
 11
309.7300658399584
 21
997.7859800325338
 31
0.0
 11
309.7726593723115
 21
997.7859700473041
 31
0.0
 11
309.8185142849261
 21
997.785964307763
 31
0.0
 11
309.8628176787226
 21
997.7859617448461
 31
0.0
 11
309.9009010240089
 21
997.785961865356
 31
0.0
 11
309.932835266494
 21
997.7859638905647
 31
0.0
 11
309.9586913518867
 21
997.785967041744
 31
0.0
 11
309.978540225896
 21
997.7859705401661
 31
0.0
 11
310.0031769179208
 21
997.785976426642
 31
0.0
 11
310.0314067764541
 21
997.7859858200642
 31
0.0
 11
310.0605642548376
 21
997.7859996434016
 31
0.0
 11
310.0879838064132
 21
997.7860188196217
 31
0.0
 11
310.1102026486878
 21
997.7860413399582
 31
0.0
 11
310.1245760388975
 21
997.7860562111337
 31
0.0
 11
310.1309065428022
 21
997.7860519510532
 31
0.0
  0
SPLINE
  5
202
330
1F
100
AcDbEntity
  8
0
  6
Continuous
 62
     2
100
AcDbSpline
210
0.0
220
0.0
230
1.0
 70
     8
 71
     3
 72
     9
 73
     5
 74
     3
 42
0.0000000001
 43
0.0000000001
 44
0.00000001
 40
0.0
 40
0.0
 40
0.0
 40
0.0
 40
6.374043025549685
 40
12.78718177881552
 40
12.78718177881552
 40
12.78718177881552
 40
12.78718177881552
 10
313.658502173507
 20
997.8479774568435
 30
0.0
 10
313.6683034472697
 20
999.9726381762109
 30
0.0
 10
313.6879661117305
 20
1004.23499139974
 30
0.0
 10
313.6907037980014
 20
1008.497389131007
 30
0.0
 10
313.6920768262592
 20
1010.635103957077
 30
0.0
 11
313.658502173507
 21
997.8479774568435
 31
0.0
 11
313.6837005840405
 21
1004.221970673946
 31
0.0
 11
313.6920768262592
 21
1010.635103957077
 31
0.0
  0
SPLINE
  5
203
330
1F
100
AcDbEntity
  8
0
  6
Continuous
 62
     2
100
AcDbSpline
210
0.0
220
0.0
230
1.0
 70
     8
 71
     3
 72
    15
 73
    11
 74
     9
 42
0.0000000001
 43
0.0000000001
 44
0.00000001
 40
0.0
 40
0.0
 40
0.0
 40
0.0
 40
0.7029350000297705
 40
1.407986454724782
 40
2.108605237084234
 40
2.80975733918726
 40
3.50614520397025
 40
4.205330868242134
 40
4.902334303422687
 40
5.597402989667169
 40
5.597402989667169
 40
5.597402989667169
 40
5.597402989667169
 10
313.658502173507
 20
997.8479774568435
 30
0.0
 10
313.669935800908
 20
997.6132906667704
 30
0.0
 10
313.692837481018
 20
997.143210472283
 30
0.0
 10
313.8899059990912
 20
996.4621169362729
 30
0.0
 10
314.2025045887041
 20
995.8294532652315
 30
0.0
 10
314.6307737956189
 20
995.2706458794013
 30
0.0
 10
315.1595821941635
 20
994.8062639952168
 30
0.0
 10
315.7695323126484
 20
994.4598747363596
 30
0.0
 10
316.4382069167129
 20
994.2376630065862
 30
0.0
 10
316.9029487233189
 20
994.2089245786963
 30
0.0
 10
317.1349966696782
 20
994.1945753355711
 30
0.0
 11
313.658502173507
 21
997.8479774568435
 31
0.0
 11
313.7198933238294
 21
997.1477284004865
 31
0.0
 11
313.909740362767
 21
996.4687176085441
 31
0.0
 11
314.2219450592387
 21
995.8415055983786
 31
0.0
 11
314.6486629616318
 21
995.2851548977762
 31
0.0
 11
315.1725248167309
 21
994.8263250654973
 31
0.0
 11
315.7800650138702
 21
994.4802679864147
 31
0.0
 11
316.4437467294329
 21
994.2673352057508
 31
0.0
 11
317.1349966696782
 21
994.1945753355711
 31
0.0
  0
SPLINE
  5
204
330
1F
100
AcDbEntity
  8
0
  6
Continuous
 62
     2
100
AcDbSpline
210
0.0
220
0.0
230
1.0
 70
     8
 71
     3
 72
    25
 73
    21
 74
    19
 42
0.0000000001
 43
0.0000000001
 44
0.00000001
 40
0.0
 40
0.0
 40
0.0
 40
0.0
 40
0.0638614941443627
 40
0.1265532741519658
 40
0.1873033347929513
 40
0.2309162875854356
 40
0.2723109400209665
 40
0.3112082743943193
 40
0.3473292730002697
 40
0.3666658421773321
 40
0.388643255968752
 40
0.4118967460682278
 40
0.4350615441693446
 40
0.4567728819655185
 40
0.4722176264901856
 40
0.4834331430831895
 40
0.4911040642050104
 40
0.4959150223158414
 40
0.4985506498765088
 40
0.4996955793469821
 40
0.4996955793469821
 40
0.4996955793469821
 40
0.4996955793469821
 10
407.7051868853439
 20
997.7860511940312
 30
0.0
 10
407.6838997206291
 20
997.7860511938052
 30
0.0
 10
407.6417152959118
 20
997.7860511933577
 30
0.0
 10
407.5792808509808
 20
997.7860512490104
 30
0.0
 10
407.5235959198338
 20
997.7860513174888
 30
0.0
 10
407.4750100312108
 20
997.7860513839914
 30
0.0
 10
407.4337083846771
 20
997.7860514449125
 30
0.0
 10
407.3949040562056
 20
997.7860515069881
 30
0.0
 10
407.3634524221534
 20
997.7860515617449
 30
0.0
 10
407.3376407616288
 20
997.7860516101563
 30
0.0
 10
407.3161182706062
 20
997.7860516531136
 30
0.0
 10
407.2933197032754
 20
997.7860517023176
 30
0.0
 10
407.2706098279434
 20
997.7860517566493
 30
0.0
 10
407.2505028678027
 20
997.7860518109854
 30
0.0
 10
407.2343790014982
 20
997.7860518633229
 30
0.0
 10
407.2229352740851
 20
997.7860519040646
 30
0.0
 10
407.2150361421434
 20
997.7860519399346
 30
0.0
 10
407.2099969732123
 20
997.786051954345
 30
0.0
 10
407.2071331348316
 20
997.786051973015
 30
0.0
 10
407.2058729491546
 20
997.7860519561561
 30
0.0
 10
407.2054913059978
 20
997.7860519510504
 30
0.0
 11
407.7051868853439
 21
997.7860511940312
 31
0.0
 11
407.6413253911995
 21
997.7860512030427
 31
0.0
 11
407.5786336111919
 21
997.7860512531784
 31
0.0
 11
407.517883550551
 21
997.7860513261522
 31
0.0
 11
407.4742705977586
 21
997.7860513857962
 31
0.0
 11
407.4328759453231
 21
997.7860514470274
 31
0.0
 11
407.3939786109498
 21
997.7860515094183
 31
0.0
 11
407.3578576123439
 21
997.7860515725409
 31
0.0
 11
407.3385210431668
 21
997.7860516088683
 31
0.0
 11
407.3165436293755
 21
997.7860516528422
 31
0.0
 11
407.2932901392761
 21
997.7860517032909
 31
0.0
 11
407.270125341175
 21
997.7860517590436
 31
0.0
 11
407.2484140033789
 21
997.7860518189292
 31
0.0
 11
407.2329692588543
 21
997.786051868836
 31
0.0
 11
407.2217537422614
 21
997.7860519104486
 31
0.0
 11
407.2140828211396
 21
997.7860519416215
 31
0.0
 11
407.2092718630288
 21
997.7860519602099
 31
0.0
 11
407.2066362354682
 21
997.7860519640676
 31
0.0
 11
407.2054913059978
 21
997.7860519510504
 31
0.0
  0
SPLINE
  5
205
330
1F
100
AcDbEntity
  8
0
  6
Continuous
 62
     2
100
AcDbSpline
210
0.0
220
0.0
230
1.0
 70
     8
 71
     3
 72
     9
 73
     5
 74
     3
 42
0.0000000001
 43
0.0000000001
 44
0.00000001
 40
0.0
 40
0.0
 40
0.0
 40
0.0
 40
6.140900779650882
 40
12.31945123331671
 40
12.31945123331671
 40
12.31945123331671
 40
12.31945123331671
 10
406.676129154208
 20
1029.754793811205
 30
0.0
 10
406.6663169167932
 20
1027.707847995568
 30
0.0
 10
406.6466322834377
 20
1023.601406602388
 30
0.0
 10
406.6438763023918
 20
1019.494918918621
 30
0.0
 10
406.6424941005698
 20
1017.435400125049
 30
0.0
 11
406.676129154208
 21
1029.754793811205
 31
0.0
 11
406.650898776605
 21
1023.613944862276
 31
0.0
 11
406.6424941005698
 21
1017.435400125049
 31
0.0
  0
SPLINE
  5
206
330
1F
100
AcDbEntity
  8
0
  6
Continuous
 62
     2
100
AcDbSpline
210
0.0
220
0.0
230
1.0
 70
     8
 71
     3
 72
    23
 73
    19
 74
    17
 42
0.0000000001
 43
0.0000000001
 44
0.00000001
 40
0.0
 40
0.0
 40
0.0
 40
0.0
 40
0.634250128557959
 40
1.263323513879576
 40
1.882037272134626
 40
2.483094523687997
 40
3.061194885407627
 40
3.609803120955473
 40
4.123001406400547
 40
4.595992903770093
 40
5.023396503173036
 40
5.402362432703943
 40
5.729686558370974
 40
6.00210686780395
 40
6.217035928868422
 40
6.371950466259517
 40
6.444324410702621
 40
6.49611125875715
 40
6.49611125875715
 40
6.49611125875715
 40
6.49611125875715
 10
316.6425468487892
 20
885.262459190705
 30
0.0
 10
316.4311308410817
 20
885.2630045577291
 30
0.0
 10
316.0100244010173
 20
885.2640908404971
 30
0.0
 10
315.3826801811143
 20
885.2654842340994
 30
0.0
 10
314.7664000145172
 20
885.2667505071661
 30
0.0
 10
314.1671104924264
 20
885.2678157989678
 30
0.0
 10
313.5911891029329
 20
885.2686284058348
 30
0.0
 10
313.0445537718571
 20
885.2692073413806
 30
0.0
 10
312.5329545534154
 20
885.2695758810532
 30
0.0
 10
312.0617567614689
 20
885.269713949885
 30
0.0
 10
311.6353030711296
 20
885.2696004480267
 30
0.0
 10
311.2574053254882
 20
885.2692558673496
 30
0.0
 10
310.9311689180381
 20
885.2687103708548
 30
0.0
 10
310.6596121759612
 20
885.2679389164539
 30
0.0
 10
310.4455260702559
 20
885.2669611064168
 30
0.0
 10
310.2981246464128
 20
885.265820303431
 30
0.0
 10
310.2051048164616
 20
885.2647557886596
 30
0.0
 10
310.1637258593428
 20
885.2639361670488
 30
0.0
 10
310.1464669024542
 20
885.2635943069575
 30
0.0
 11
316.6425468487892
 21
885.262459190705
 31
0.0
 11
316.0082987334505
 21
885.2640572411235
 31
0.0
 11
315.3792269442039
 21
885.2654743134568
 31
0.0
 11
314.7605144675044
 21
885.2667336110903
 31
0.0
 11
314.1594581477283
 21
885.2677919598251
 31
0.0
 11
313.5813583612399
 21
885.2686074856921
 31
0.0
 11
313.0327504326592
 21
885.2691878384617
 31
0.0
 11
312.5195522732387
 21
885.2695474927292
 31
0.0
 11
312.0465607922802
 21
885.2696720903142
 31
0.0
 11
311.6191572110677
 21
885.2695473934065
 31
0.0
 11
311.2401914513446
 21
885.269188641842
 31
0.0
 11
310.9128678368339
 21
885.2686101719885
 31
0.0
 11
310.6404487415369
 21
885.2677968398716
 31
0.0
 11
310.4255222902358
 21
885.2667376792848
 31
0.0
 11
310.270612882545
 21
885.2654770032838
 31
0.0
 11
310.1982447516276
 21
885.2645596910295
 31
0.0
 11
310.1464669024542
 21
885.2635943069575
 31
0.0
  0
SPLINE
  5
207
330
1F
100
AcDbEntity
  8
0
  6
Continuous
 62
     2
100
AcDbSpline
210
0.0
220
0.0
230
1.0
 70
     8
 71
     3
 72
    20
 73
    16
 74
    14
 42
0.0000000001
 43
0.0000000001
 44
0.00000001
 40
0.0
 40
0.0
 40
0.0
 40
0.0
 40
0.0023021671910303
 40
0.0091867841960075
 40
0.0217235218196615
 40
0.0364084235799647
 40
0.0710531427398512
 40
0.1077978348524609
 40
0.1403304234940298
 40
0.1652364440107457
 40
0.1994300614673894
 40
0.2431492573347851
 40
0.2966320131482242
 40
0.3875280042076175
 40
0.4825505977268089
 40
0.4825505977268089
 40
0.4825505977268089
 40
0.4825505977268089
 10
316.642545983929
 20
885.7450094004131
 30
0.0
 10
316.6425336035925
 20
885.7442421073938
 30
0.0
 10
316.6424841999348
 20
885.7411802292596
 30
0.0
 10
316.6424653107812
 20
885.7339388692626
 30
0.0
 10
316.6424644744409
 20
885.722570227687
 30
0.0
 10
316.6424556300163
 20
885.7019480566397
 30
0.0
 10
316.6424560524831
 20
885.6732566491677
 30
0.0
 10
316.6424588315854
 20
885.6386159722665
 30
0.0
 10
316.6424646726076
 20
885.6072215414008
 30
0.0
 10
316.6424717202925
 20
885.5766774661722
 30
0.0
 10
316.6424811184059
 20
885.5424045230161
 30
0.0
 10
316.6424951564604
 20
885.4986060020968
 30
0.0
 10
316.6425175650081
 20
885.4359066921236
 30
0.0
 10
316.6425539245164
 20
885.3561062515607
 30
0.0
 10
316.6425492420088
 20
885.2941333890487
 30
0.0
 10
316.6425468487892
 20
885.262459190705
 30
0.0
 11
316.642545983929
 21
885.7450094004131
 31
0.0
 11
316.6425114437362
 21
885.7427074923457
 31
0.0
 11
316.6424722876811
 21
885.7358229866911
 31
0.0
 11
316.6424638432877
 21
885.7232862519114
 31
0.0
 11
316.6424591298871
 21
885.7086013509075
 31
0.0
 11
316.6424564092674
 21
885.6739566318545
 31
0.0
 11
316.6424596317227
 21
885.6372119398832
 31
0.0
 11
316.6424654200482
 21
885.6046793517565
 31
0.0
 11
316.6424711580646
 21
885.5797733319008
 31
0.0
 11
316.6424804793284
 21
885.5455797157147
 31
0.0
 11
316.6424943550924
 21
885.5018605220492
 31
0.0
 11
316.6425137566091
 21
885.4483777697549
 31
0.0
 11
316.6425454292537
 21
885.3574817842136
 31
0.0
 11
316.6425468487892
 21
885.262459190705
 31
0.0
  0
SPLINE
  5
208
330
1F
100
AcDbEntity
  8
0
  6
Continuous
 62
     2
100
AcDbSpline
210
0.0
220
0.0
230
1.0
 70
     8
 71
     3
 72
    19
 73
    15
 74
    13
 42
0.0000000001
 43
0.0000000001
 44
0.00000001
 40
0.0
 40
0.0
 40
0.0
 40
0.0
 40
0.0068423172660594
 40
0.0176549455822633
 40
0.0364081960072185
 40
0.0564964562479716
 40
0.0900972547659219
 40
0.1403303396280098
 40
0.1987987131232847
 40
0.2528596961048051
 40
0.2966319344462464
 40
0.3704204978694154
 40
0.433892387022482
 40
0.4825503059550826
 40
0.4825503059550826
 40
0.4825503059550826
 40
0.4825503059550826
 10
400.725057282976
 20
885.7450094003973
 30
0.0
 10
400.7250571039027
 20
885.7427286279823
 30
0.0
 10
400.725056641847
 20
885.7368436461392
 30
0.0
 10
400.7250561145598
 20
885.724707580813
 30
0.0
 10
400.7250556512142
 20
885.7081562011588
 30
0.0
 10
400.7250551211582
 20
885.6840087647699
 30
0.0
 10
400.7250544794505
 20
885.6493680502359
 30
0.0
 10
400.7250537485214
 20
885.6019339646163
 30
0.0
 10
400.7250530324901
 20
885.5476798175077
 30
0.0
 10
400.7250524266952
 20
885.4955792859055
 30
0.0
 10
400.7250518221566
 20
885.4383720243266
 30
0.0
 10
400.7250512518644
 20
885.3780277940234
 30
0.0
 10
400.7250507298768
 20
885.3160550035225
 30
0.0
 10
400.7250504530289
 20
885.2786784008283
 30
0.0
 10
400.7250503328928
 20
885.2624590945179
 30
0.0
 11
400.725057282976
 21
885.7450094003973
 31
0.0
 11
400.7250567767522
 21
885.73816708315
 31
0.0
 11
400.7250562499306
 21
885.7273544548466
 31
0.0
 11
400.725055681912
 21
885.7086012044302
 31
0.0
 11
400.7250552286125
 21
885.6885129441946
 31
0.0
 11
400.7250545961379
 21
885.6549121456826
 31
0.0
 11
400.725053807935
 21
885.6046790608267
 31
0.0
 11
400.7250530290024
 21
885.5462106873366
 31
0.0
 11
400.7250523973723
 21
885.4921497043588
 31
0.0
 11
400.7250519339568
 21
885.4483774660198
 31
0.0
 11
400.7250512329546
 21
885.3745889026
 31
0.0
 11
400.7250507004511
 21
885.3111170134491
 31
0.0
 11
400.7250503328928
 21
885.2624590945179
 31
0.0
  0
SPLINE
  5
209
330
1F
100
AcDbEntity
  8
0
  6
Continuous
 62
     2
100
AcDbSpline
210
0.0
220
0.0
230
1.0
 70
     8
 71
     3
 72
    15
 73
    11
 74
     9
 42
0.0000000001
 43
0.0000000001
 44
0.00000001
 40
0.0
 40
0.0
 40
0.0
 40
0.0
 40
0.6908944575706534
 40
1.355472985197175
 40
1.966222932900322
 40
2.497087661820137
 40
2.937076340144399
 40
3.269400593158871
 40
3.491856563867997
 40
3.620903798564202
 40
3.620903798564202
 40
3.620903798564202
 40
3.620903798564202
 10
317.1496752987571
 20
867.9056939490619
 30
0.0
 10
316.9193516455238
 20
867.9028204949984
 30
0.0
 10
316.4674772870187
 20
867.8971830357395
 30
0.0
 10
315.8133191740015
 20
867.8540467387588
 30
0.0
 10
315.2141922255346
 20
867.7881869598889
 30
0.0
 10
314.6952364450447
 20
867.701407415698
 30
0.0
 10
314.2677136456385
 20
867.6043523862419
 30
0.0
 10
313.9632671125293
 20
867.4922007488743
 30
0.0
 10
313.7387961329448
 20
867.3958429550843
 30
0.0
 10
313.6914571570111
 20
867.2852733290233
 30
0.0
 10
313.6740776172412
 20
867.2446799453355
 30
0.0
 11
317.1496752987571
 21
867.9056939490619
 31
0.0
 11
316.4589411301761
 21
867.8908124216995
 31
0.0
 11
315.7957536587544
 21
867.8478357171786
 31
0.0
 11
315.188865753741
 21
867.7792604346942
 31
0.0
 11
314.6654351026783
 21
867.6907295703629
 31
0.0
 11
314.2379112237048
 21
867.58674221555
 31
0.0
 11
313.9252210312542
 21
867.4742066536737
 31
0.0
 11
313.7353875329787
 21
867.3582329418393
 31
0.0
 11
313.6740776172412
 21
867.2446799453355
 31
0.0
  0
SPLINE
  5
20A
330
1F
100
AcDbEntity
  8
0
  6
Continuous
 62
     2
100
AcDbSpline
210
0.0
220
0.0
230
1.0
 70
     8
 71
     3
 72
     9
 73
     5
 74
     3
 42
0.0000000001
 43
0.0000000001
 44
0.00000001
 40
0.0
 40
0.0
 40
0.0
 40
0.0
 40
0.4177870139386898
 40
1.000235011599887
 40
1.000235011599887
 40
1.000235011599887
 40
1.000235011599887
 10
313.707676918229
 20
866.2450094171761
 30
0.0
 10
313.7030040531894
 20
866.3841933355095
 30
0.0
 10
313.6918166226059
 20
866.7174172594798
 30
0.0
 10
313.6806058026672
 20
867.050640397415
 30
0.0
 10
313.6740776172412
 20
867.2446799453355
 30
0.0
 11
313.707676918229
 21
866.2450094171761
 31
0.0
 11
313.6936542425101
 21
866.6625610350409
 31
0.0
 11
313.6740776172412
 21
867.2446799453355
 31
0.0
  0
SPLINE
  5
20B
330
1F
100
AcDbEntity
  8
0
  6
Continuous
 62
     2
100
AcDbSpline
210
0.0
220
0.0
230
1.0
 70
     8
 71
     3
 72
    15
 73
    11
 74
     9
 42
0.0000000001
 43
0.0000000001
 44
0.00000001
 40
0.0
 40
0.0
 40
0.0
 40
0.0
 40
0.531568313935605
 40
1.093843661838565
 40
1.679350844498104
 40
2.277927414881692
 40
2.877953542995369
 40
3.467458584111351
 40
4.035404671711607
 40
4.573225001632963
 40
4.573225001632963
 40
4.573225001632963
 40
4.573225001632963
 10
310.6758688403681
 20
870.1035063243885
 30
0.0
 10
310.6915307617861
 20
869.9265358271001
 30
0.0
 10
310.7237593446909
 20
869.5623718020511
 30
0.0
 10
310.9024042239943
 20
869.0264493983689
 30
0.0
 10
311.1864887379568
 20
868.5148185706772
 30
0.0
 10
311.575952481116
 20
868.0597472501031
 30
0.0
 10
312.0501711753145
 20
867.6917392773644
 30
0.0
 10
312.5775577876709
 20
867.4297843588439
 30
0.0
 10
313.125540288643
 20
867.2727309320351
 30
0.0
 10
313.4945832720234
 20
867.2538588894618
 30
0.0
 10
313.6740776172412
 20
867.2446799453355
 30
0.0
 11
310.6758688403681
 21
870.1035063243885
 31
0.0
 11
310.7427231833722
 21
869.5761588400844
 31
0.0
 11
310.9154392171231
 21
869.0410675034467
 31
0.0
 11
311.2004669172376
 21
868.529620662501
 31
0.0
 11
311.5896590343002
 21
868.0748422476345
 31
0.0
 11
312.0635168213705
 21
867.7067523781027
 31
0.0
 11
312.590980891611
 21
867.4435075336964
 31
0.0
 11
313.138341821115
 21
867.291986012872
 31
0.0
 11
313.6740776172412
 21
867.2446799453355
 31
0.0
  0
SPLINE
  5
20C
330
1F
100
AcDbEntity
  8
0
  6
Continuous
 62
     2
100
AcDbSpline
210
0.0
220
0.0
230
1.0
 70
     8
 71
     3
 72
    23
 73
    19
 74
    17
 42
0.0000000001
 43
0.0000000001
 44
0.00000001
 40
0.0
 40
0.0
 40
0.0
 40
0.0
 40
0.0516703580759005
 40
0.1238199033433326
 40
0.2782214864420556
 40
0.4926838153483218
 40
0.7656885203059033
 40
1.094247953500526
 40
1.474932702128878
 40
1.903819388960311
 40
2.375760514561453
 40
2.88706956670405
 40
3.4335223029698
 40
4.00985503760845
 40
4.611419733594067
 40
5.231098693820836
 40
5.861033905759749
 40
6.496091727074876
 40
6.496091727074876
 40
6.496091727074876
 40
6.496091727074876
 10
407.2210913072129
 20
885.2624591908016
 30
0.0
 10
407.2038755950327
 20
885.2629818037849
 30
0.0
 10
407.16262084284
 20
885.2642341637737
 30
0.0
 10
407.0698887554404
 20
885.2656622025669
 30
0.0
 10
406.9228903452375
 20
885.2669719886909
 30
0.0
 10
406.7089355383892
 20
885.2679298710759
 30
0.0
 10
406.4369279874464
 20
885.2687104949079
 30
0.0
 10
406.1095120095372
 20
885.2692548009597
 30
0.0
 10
405.7301352135961
 20
885.2696007585159
 30
0.0
 10
405.3029643381553
 20
885.2697138658436
 30
0.0
 10
404.8322520542494
 20
885.2695758765769
 30
0.0
 10
404.3223512031951
 20
885.2692080757098
 30
0.0
 10
403.7776533248839
 20
885.2686308239902
 30
0.0
 10
403.2028704955631
 20
885.2678193562339
 30
0.0
 10
402.6036793003319
 20
885.2667542100326
 30
0.0
 10
401.9866209764313
 20
885.2654869795671
 30
0.0
 10
401.3583985160946
 20
885.2640925783596
 30
0.0
 10
400.936735570891
 20
885.2630050571099
 30
0.0
 10
400.7250503328928
 20
885.2624590945179
 30
0.0
 11
407.2210913072129
 21
885.2624591908016
 31
0.0
 11
407.1694415921638
 21
885.2639196150699
 31
0.0
 11
407.097303237809
 21
885.2651903287574
 31
0.0
 11
406.9429090168978
 21
885.2666981127685
 31
0.0
 11
406.7284494775457
 21
885.2677919595503
 31
0.0
 11
406.4554459906697
 21
885.2686074854462
 31
0.0
 11
406.1268870700302
 21
885.2691878382705
 31
0.0
 11
405.7462024912948
 21
885.2695474926206
 31
0.0
 11
405.317315822562
 21
885.2696720903145
 31
0.0
 11
404.8453747134346
 21
885.269547393539
 31
0.0
 11
404.334065787148
 21
885.269188642129
 31
0.0
 11
403.7876133570636
 21
885.268610172442
 31
0.0
 11
403.2112811963202
 21
885.2677968404565
 31
0.0
 11
402.6097174327548
 21
885.2667376798113
 31
0.0
 11
401.9900397548904
 21
885.2654770036718
 31
0.0
 11
401.3601061394448
 21
885.2640587751534
 31
0.0
 11
400.7250503328928
 21
885.2624590945179
 31
0.0
  0
SPLINE
  5
20D
330
1F
100
AcDbEntity
  8
0
  6
Continuous
 62
     2
100
AcDbSpline
210
0.0
220
0.0
230
1.0
 70
     8
 71
     3
 72
    15
 73
    11
 74
     9
 42
0.0000000001
 43
0.0000000001
 44
0.00000001
 40
0.0
 40
0.0
 40
0.0
 40
0.0
 40
0.1585867437842437
 40
0.4100261096772667
 40
0.680501297763419
 40
1.001871688887979
 40
1.421188640521029
 40
1.885380505884234
 40
2.352975434628923
 40
2.834505475263575
 40
2.834505475263575
 40
2.834505475263575
 40
2.834505475263575
 10
317.1496752987571
 20
867.9056939490619
 30
0.0
 10
317.1496753369046
 20
867.95855619699
 30
0.0
 10
317.1496754355348
 20
868.095231566882
 30
0.0
 10
317.1496754321358
 20
868.3220653328036
 30
0.0
 10
317.1496754484695
 20
868.6031603145047
 30
0.0
 10
317.149675445975
 20
868.9402144914521
 30
0.0
 10
317.1496754470877
 20
869.3418408941598
 30
0.0
 10
317.1496754373803
 20
869.7922088094064
 30
0.0
 10
317.1496754090956
 20
870.2633144209876
 30
0.0
 10
317.149675402615
 20
870.5796894107805
 30
0.0
 10
317.1496753993272
 20
870.7401994243254
 30
0.0
 11
317.1496752987571
 21
867.9056939490619
 31
0.0
 11
317.1496753981388
 21
868.0642806928461
 31
0.0
 11
317.1496754351822
 21
868.3157200587391
 31
0.0
 11
317.1496754447846
 21
868.5861952468252
 31
0.0
 11
317.1496754466895
 21
868.9075656379498
 31
0.0
 11
317.1496754454326
 21
869.3268825895829
 31
0.0
 11
317.1496754344382
 21
869.791074454946
 31
0.0
 11
317.1496754124118
 21
870.2586693836907
 31
0.0
 11
317.1496753993272
 21
870.7401994243254
 31
0.0
  0
SPLINE
  5
20E
330
1F
100
AcDbEntity
  8
0
  6
Continuous
 62
     2
100
AcDbSpline
210
0.0
220
0.0
230
1.0
 70
     8
 71
     3
 72
    15
 73
    11
 74
     9
 42
0.0000000001
 43
0.0000000001
 44
0.00000001
 40
0.0
 40
0.0
 40
0.0
 40
0.0
 40
0.1318099579217194
 40
0.3442137584501946
 40
0.6368733403240253
 40
1.001875114944536
 40
1.424652226241066
 40
1.885386579015037
 40
2.362255658843392
 40
2.834514130455402
 40
2.834514130455402
 40
2.834514130455402
 40
2.834514130455402
 10
400.217000931046
 20
867.9056930982408
 30
0.0
 10
400.2170871632443
 20
867.9496296736581
 30
0.0
 10
400.2173123534315
 20
868.0643673914775
 30
0.0
 10
400.2173245443375
 20
868.2766585963712
 30
0.0
 10
400.2173296437264
 20
868.5666802766617
 30
0.0
 10
400.2172764084582
 20
868.9268264440112
 30
0.0
 10
400.2172606564202
 20
869.3429975201502
 30
0.0
 10
400.2173268245466
 20
869.7964576996702
 30
0.0
 10
400.2175133342972
 20
870.2664116448038
 30
0.0
 10
400.2177869547367
 20
870.582787380825
 30
0.0
 10
400.2179231003688
 20
870.7402068144108
 30
0.0
 11
400.217000931046
 21
867.9056930982408
 31
0.0
 11
400.217227572864
 21
868.0375028613117
 31
0.0
 11
400.217321821767
 21
868.2499066409299
 31
0.0
 11
400.2173220395839
 21
868.5425662228037
 31
0.0
 11
400.2172854541659
 21
868.9075679955906
 31
0.0
 11
400.2172735278382
 21
869.3303451067189
 31
0.0
 11
400.217344978355
 21
869.7910794539526
 31
0.0
 11
400.2175513199625
 21
870.2679484891389
 31
0.0
 11
400.2179231003688
 21
870.7402068144108
 31
0.0
  0
SPLINE
  5
20F
330
1F
100
AcDbEntity
  8
0
  6
Continuous
 62
     2
100
AcDbSpline
210
0.0
220
0.0
230
1.0
 70
     8
 71
     3
 72
    23
 73
    19
 74
    17
 42
0.0000000001
 43
0.0000000001
 44
0.00000001
 40
0.0
 40
0.0
 40
0.0
 40
0.0
 40
0.6432613647014652
 40
1.281240933622795
 40
1.908711615240439
 40
2.516593422947553
 40
3.095031191833127
 40
3.642300325903678
 40
4.154102816260124
 40
4.625417254937918
 40
5.049867243023747
 40
5.425919301821591
 40
5.751073827803924
 40
6.022111380498589
 40
6.235774709239434
 40
6.392353326211062
 40
6.492765282526374
 40
6.545846190615467
 40
6.545846190615467
 40
6.545846190615467
 40
6.545846190615467
 10
317.1496753993272
 20
870.7401994243254
 30
0.0
 10
316.9352920601351
 20
870.7361256656883
 30
0.0
 10
316.5082856755886
 20
870.7280115978989
 30
0.0
 10
315.8723380149379
 20
870.7083586068352
 30
0.0
 10
315.2483748745904
 20
870.6836731369436
 30
0.0
 10
314.6445071911619
 20
870.6537610075144
 30
0.0
 10
314.0676767697073
 20
870.6190408866587
 30
0.0
 10
313.5232145103353
 20
870.580176371102
 30
0.0
 10
313.0148313094675
 20
870.5378214683681
 30
0.0
 10
312.5478089714364
 20
870.492716755336
 30
0.0
 10
312.1264554391936
 20
870.4455326097411
 30
0.0
 10
311.7544684257378
 20
870.3968754241143
 30
0.0
 10
311.4338283520738
 20
870.3477794318205
 30
0.0
 10
311.1691632351047
 20
870.2980644124117
 30
0.0
 10
310.9585787287947
 20
870.2515593417231
 30
0.0
 10
310.8135507744549
 20
870.2018324208493
 30
0.0
 10
310.7088460402308
 20
870.1658665331184
 30
0.0
 10
310.6843426155904
 20
870.1195303165343
 30
0.0
 10
310.6758688403681
 20
870.1035063243885
 30
0.0
 11
317.1496753993272
 21
870.7401994243254
 31
0.0
 11
316.506555738701
 21
870.726698112033
 31
0.0
 11
315.868870419034
 21
870.7073238135348
 31
0.0
 11
315.2418965747844
 21
870.6823587396001
 31
0.0
 11
314.6347646552578
 21
870.6521739017975
 31
0.0
 11
314.0573782012092
 21
870.617315113026
 31
0.0
 11
313.5115072804372
 21
870.5782198068912
 31
0.0
 11
313.0014877068206
 21
870.5355369805666
 31
0.0
 11
312.532382002172
 21
870.4899613514184
 31
0.0
 11
312.1106098454358
 21
870.4423584083561
 31
0.0
 11
311.7377835259202
 21
870.3932087755745
 31
0.0
 11
311.4165108552841
 21
870.3431154938979
 31
0.0
 11
311.1501741113142
 21
870.2928552334309
 31
0.0
 11
310.942328853018
 21
870.2433338577189
 31
0.0
 11
310.7934255856807
 21
870.1949119590674
 31
0.0
 11
310.7045583559225
 21
870.1481660881677
 31
0.0
 11
310.6758688403681
 21
870.1035063243885
 31
0.0
  0
SPLINE
  5
210
330
1F
100
AcDbEntity
  8
0
  6
Continuous
 62
     2
100
AcDbSpline
210
0.0
220
0.0
230
1.0
 70
     8
 71
     3
 72
     9
 73
     5
 74
     3
 42
0.0000000001
 43
0.0000000001
 44
0.00000001
 40
0.0
 40
0.0
 40
0.0
 40
0.0
 40
0.5825266718907993
 40
1.00036826440443
 40
1.00036826440443
 40
1.00036826440443
 40
1.00036826440443
 10
403.693495694698
 20
867.2448168736798
 30
0.0
 10
403.6869672356645
 20
867.0507510952103
 30
0.0
 10
403.6757559666397
 20
866.7174835293531
 30
0.0
 10
403.6645864377754
 20
866.3842145620985
 30
0.0
 10
403.6599210621389
 20
866.2450121893644
 30
0.0
 11
403.693495694698
 21
867.2448168736798
 31
0.0
 11
403.6739244711652
 21
866.6626190630745
 31
0.0
 11
403.6599210621389
 21
866.2450121893644
 31
0.0
  0
SPLINE
  5
211
330
1F
100
AcDbEntity
  8
0
  6
Continuous
 62
     2
100
AcDbSpline
210
0.0
220
0.0
230
1.0
 70
     8
 71
     3
 72
    15
 73
    11
 74
     9
 42
0.0000000001
 43
0.0000000001
 44
0.00000001
 40
0.0
 40
0.0
 40
0.0
 40
0.0
 40
0.129074112171181
 40
0.3515341763510038
 40
0.6833424977585634
 40
1.122508916574014
 40
1.653815685548933
 40
2.265222379235351
 40
2.930296496220537
 40
3.62170720845462
 40
3.62170720845462
 40
3.62170720845462
 40
3.62170720845462
 10
403.693495694698
 20
867.2448168736798
 30
0.0
 10
403.6760860841371
 20
867.285404920223
 30
0.0
 10
403.6286708975731
 20
867.3959467265637
 30
0.0
 10
403.4043914114596
 20
867.4922403241026
 30
0.0
 10
403.1003321273234
 20
867.6042407208446
 30
0.0
 10
402.673122280818
 20
867.7012598612775
 30
0.0
 10
402.1540765583397
 20
867.7880765377382
 30
0.0
 10
401.5544216190499
 20
867.8539984787094
 30
0.0
 10
400.8997082455368
 20
867.897171518784
 30
0.0
 10
400.4474966477487
 20
867.9028160416713
 30
0.0
 10
400.217000931046
 20
867.9056930982408
 30
0.0
 11
403.693495694698
 21
867.2448168736798
 31
0.0
 11
403.6321045066072
 21
867.3583565075421
 31
0.0
 11
403.4422574121282
 21
867.4743158145113
 31
0.0
 11
403.1300524975205
 21
867.586676187642
 31
0.0
 11
402.7033342950329
 21
867.6904967977392
 31
0.0
 11
402.179472812821
 21
867.7791310474023
 31
0.0
 11
401.5719331299624
 21
867.8477872840932
 31
0.0
 11
400.9082511557979
 21
867.8907967976077
 31
0.0
 11
400.217000931046
 21
867.9056930982408
 31
0.0
  0
SPLINE
  5
212
330
1F
100
AcDbEntity
  8
0
  6
Continuous
 62
     2
100
AcDbSpline
210
0.0
220
0.0
230
1.0
 70
     8
 71
     3
 72
    15
 73
    11
 74
     9
 42
0.0000000001
 43
0.0000000001
 44
0.00000001
 40
0.0
 40
0.0
 40
0.0
 40
0.0
 40
0.5378378750555382
 40
1.105804716607552
 40
1.695313351436883
 40
2.295313512184297
 40
2.893835282877808
 40
3.479273194189598
 40
4.041486356745089
 40
4.573019734203992
 40
4.573019734203992
 40
4.573019734203992
 40
4.573019734203992
 10
403.693495694698
 20
867.2448168736798
 30
0.0
 10
403.8729930164301
 20
867.254038909035
 30
0.0
 10
404.2420428624813
 20
867.2729995859704
 30
0.0
 10
404.7900205709775
 20
867.4300975398191
 30
0.0
 10
405.3174083531719
 20
867.692044133223
 30
0.0
 10
405.7916325775702
 20
868.0599997232603
 30
0.0
 10
406.1811047066016
 20
868.5149979036564
 30
0.0
 10
406.4651958074136
 20
869.0265548782736
 30
0.0
 10
406.6438418615984
 20
869.5624195863747
 30
0.0
 10
406.6760680400174
 20
869.9265515165764
 30
0.0
 10
406.691729154207
 20
870.1035104989547
 30
0.0
 11
403.693495694698
 21
867.2448168736798
 31
0.0
 11
404.2292389076011
 21
867.292238278894
 31
0.0
 11
404.7766061875359
 21
867.4438146423529
 31
0.0
 11
405.3040752246295
 21
867.7070575823263
 31
0.0
 11
405.7779365219119
 21
868.0751006013265
 31
0.0
 11
406.1671307203668
 21
868.5298051052443
 31
0.0
 11
406.4521592535439
 21
869.0411721781734
 31
0.0
 11
406.624875284738
 21
869.5761981707375
 31
0.0
 11
406.691729154207
 21
870.1035104989547
 31
0.0
  0
SPLINE
  5
213
330
1F
100
AcDbEntity
  8
0
  6
Continuous
 62
     2
100
AcDbSpline
210
0.0
220
0.0
230
1.0
 70
     8
 71
     3
 72
    23
 73
    19
 74
    17
 42
0.0000000001
 43
0.0000000001
 44
0.00000001
 40
0.0
 40
0.0
 40
0.0
 40
0.0
 40
0.0531529323711786
 40
0.1538014635501724
 40
0.3106233096159826
 40
0.5244564882752966
 40
0.7949856012130778
 40
1.119187248837035
 40
1.493861310843404
 40
1.917045700643535
 40
2.388935421322596
 40
2.901943757035368
 40
3.450664542447865
 40
4.03033116325572
 40
4.63807143578735
 40
5.265134715743395
 40
5.902807842478302
 40
6.545810022367075
 40
6.545810022367075
 40
6.545810022367075
 40
6.545810022367075
 10
406.691729154207
 20
870.1035104989547
 30
0.0
 10
406.6832162418617
 20
870.1195393540768
 30
0.0
 10
406.6585835768444
 20
870.1659198878837
 30
0.0
 10
406.5537023981047
 20
870.2019009919088
 30
0.0
 10
406.408472621033
 20
870.2517334219476
 30
0.0
 10
406.1979282204424
 20
870.2982499534049
 30
0.0
 10
405.9336798950079
 20
870.347874191631
 30
0.0
 10
405.6139763250188
 20
870.396818444957
 30
0.0
 10
405.2431793091146
 20
870.4453347259671
 30
0.0
 10
404.8225110771073
 20
870.4924423368689
 30
0.0
 10
404.3553162854168
 20
870.5375497043718
 30
0.0
 10
403.8458578713305
 20
870.5799784426109
 30
0.0
 10
403.300102073393
 20
870.6189157270728
 30
0.0
 10
402.7224281543272
 20
870.6537047394553
 30
0.0
 10
402.1183382539969
 20
870.6837097924508
 30
0.0
 10
401.4946631187904
 20
870.7084617742903
 30
0.0
 10
400.8590405968652
 20
870.7281519076873
 30
0.0
 10
400.4322209495157
 20
870.736177380498
 30
0.0
 10
400.2179231003688
 20
870.7402068144108
 30
0.0
 11
406.691729154207
 21
870.1035104989547
 31
0.0
 11
406.6629300647778
 21
870.1481853987051
 31
0.0
 11
406.5738299513051
 21
870.1949966858871
 31
0.0
 11
406.4246985550487
 21
870.2435035725539
 31
0.0
 11
406.2166922597685
 21
870.2930818885736
 31
0.0
 11
405.9508537916013
 21
870.3432407341489
 31
0.0
 11
405.6305214561156
 21
870.3931797285753
 31
0.0
 11
405.2590623520481
 21
870.4421571391413
 31
0.0
 11
404.8385482333354
 21
870.4896219022168
 31
0.0
 11
404.3688691222129
 21
870.5352447151253
 31
0.0
 11
403.857646629843
 21
870.578012878588
 31
0.0
 11
403.3103268196565
 21
870.6171986632692
 31
0.0
 11
402.7317149403557
 21
870.6521512656155
 31
0.0
 11
402.1247278063766
 21
870.6823978859337
 31
0.0
 11
401.4981639876794
 21
870.7074206389573
 31
0.0
 11
400.8607856954454
 21
870.726809531363
 31
0.0
 11
400.2179231003688
 21
870.7402068144108
 31
0.0
  0
SPLINE
  5
214
330
1F
100
AcDbEntity
  8
0
  6
Continuous
 62
     2
100
AcDbSpline
210
0.0
220
0.0
230
1.0
 70
     8
 71
     3
 72
    31
 73
    27
 74
    25
 42
0.0000000001
 43
0.0000000001
 44
0.00000001
 40
0.0
 40
0.0
 40
0.0
 40
0.0
 40
0.6302185074263321
 40
1.255589783699496
 40
1.871121007090074
 40
2.470014025609823
 40
2.857921976781496
 40
3.234107393811128
 40
3.596711275636979
 40
3.943861510893738
 40
4.274624942446084
 40
4.588040503064828
 40
4.884625965972431
 40
5.160952619893393
 40
5.415277520675056
 40
5.646150931390242
 40
5.852533372539389
 40
6.033705147373179
 40
6.152938740746875
 40
6.257157870087222
 40
6.346024019096671
 40
6.419203133463882
 40
6.476322672710816
 40
6.517506824559493
 40
6.54283992366796
 40
6.552949796063235
 40
6.552949796063235
 40
6.552949796063235
 40
6.552949796063235
 10
561.5407978472208
 20
998.3154139689558
 30
0.0
 10
561.5260829222619
 20
998.1058568551022
 30
0.0
 10
561.4967662499835
 20
997.6883544045146
 30
0.0
 10
561.4499417157704
 20
997.0664050482192
 30
0.0
 10
561.4016605449976
 20
996.4550421704304
 30
0.0
 10
561.3574583980717
 20
995.9227619577623
 30
0.0
 10
561.318315212991
 20
995.470122015605
 30
0.0
 10
561.2849369085601
 20
995.0960419661862
 30
0.0
 10
561.2517746166085
 20
994.735583913689
 30
0.0
 10
561.2190221625197
 20
994.3902941447102
 30
0.0
 10
561.1868662973252
 20
994.0614188777818
 30
0.0
 10
561.1554169220544
 20
993.7494112348338
 30
0.0
 10
561.1248641297957
 20
993.4555521774356
 30
0.0
 10
561.0954153815694
 20
993.1813829644055
 30
0.0
 10
561.0673524263207
 20
992.9290965388525
 30
0.0
 10
561.0408673004313
 20
992.7000954662449
 30
0.0
 10
561.0161756082377
 20
992.4954354921958
 30
0.0
 10
560.9949732118587
 20
992.3278426248303
 30
0.0
 10
560.9772123999006
 20
992.1941373226498
 30
0.0
 10
560.9627685970822
 20
992.0910484303752
 30
0.0
 10
560.9497536090889
 20
992.003217876568
 30
0.0
 10
560.9378552792347
 20
991.9312260736378
 30
0.0
 10
560.9281462192926
 20
991.8746637175211
 30
0.0
 10
560.9182659023159
 20
991.8350962799359
 30
0.0
 10
560.913643718869
 20
991.8091151762453
 30
0.0
 10
560.9062192648169
 20
991.7997975822373
 30
0.0
 10
560.9041014885727
 20
991.7971398003848
 30
0.0
 11
561.5407978472208
 21
998.3154139689558
 31
0.0
 11
561.496122932303
 21
997.6867809129686
 31
0.0
 11
561.4493116532631
 21
997.0631640936459
 31
0.0
 11
561.4008047818754
 21
996.4495471362557
 31
0.0
 11
561.3512264844926
 21
995.8527097714231
 31
0.0
 11
561.3178000958993
 21
995.4662446952159
 31
0.0
 11
561.2843596767641
 21
995.0915485431756
 31
0.0
 11
561.2511287088265
 21
994.7304706043797
 31
0.0
 11
561.2183356866458
 21
994.3848727115402
 31
0.0
 11
561.1861350248014
 21
994.0556804196665
 31
0.0
 11
561.1546865652102
 21
993.7438466369756
 31
0.0
 11
561.1239926394675
 21
993.448853722263
 31
0.0
 11
561.0944519796444
 21
993.1741106257449
 31
0.0
 11
561.0662955168636
 21
992.9213491398312
 31
0.0
 11
561.0397306734407
 21
992.6920091283436
 31
0.0
 11
561.0149590873747
 21
992.4871187172979
 31
0.0
 11
560.9921570815161
 21
992.3073875833081
 31
0.0
 11
560.9764036795484
 21
992.1891992585241
 31
0.0
 11
560.9619104558677
 21
992.0859927985141
 31
0.0
 11
560.9487231996484
 21
991.9981105550677
 31
0.0
 11
560.9368877000655
 21
991.9258948799743
 31
0.0
 11
560.9264708118965
 21
991.8697332364384
 31
0.0
 11
560.9174988006682
 21
991.8295382444865
 31
0.0
 11
560.9100246862655
 21
991.8053328003812
 31
0.0
 11
560.9041014885727
 21
991.7971398003848
 31
0.0
  0
SPLINE
  5
215
330
1F
100
AcDbEntity
  8
0
  6
Continuous
 62
     2
100
AcDbSpline
210
0.0
220
0.0
230
1.0
 70
     8
 71
     3
 72
    23
 73
    19
 74
    17
 42
0.0000000001
 43
0.0000000001
 44
0.00000001
 40
0.0
 40
0.0
 40
0.0
 40
0.0
 40
0.6342501421034842
 40
1.26332349118241
 40
1.882037204857607
 40
2.483094418317969
 40
3.061194762423321
 40
3.609802988150786
 40
4.123001267852832
 40
4.595992763825876
 40
5.023396367358775
 40
5.402362306773612
 40
5.729686449042307
 40
6.002106785208131
 40
6.217034840466344
 40
6.371942964244021
 40
6.444309915924973
 40
6.496091088433303
 40
6.496091088433303
 40
6.496091088433303
 40
6.496091088433303
 10
546.3818491917027
 20
997.786051951049
 30
0.0
 10
546.3813038123237
 20
997.5746359388575
 30
0.0
 10
546.3802175049898
 20
997.1535295064211
 30
0.0
 10
546.3788241143668
 20
996.5261853089353
 30
0.0
 10
546.377557840432
 20
995.9099051819751
 30
0.0
 10
546.3764925494993
 20
995.3106156933281
 30
0.0
 10
546.3756799401609
 20
994.7346943256223
 30
0.0
 10
546.3751010127946
 20
994.1880590057963
 30
0.0
 10
546.3747324453614
 20
993.6764597923648
 30
0.0
 10
546.374594467831
 20
993.2052620035408
 30
0.0
 10
546.3747076764687
 20
992.7788083022008
 30
0.0
 10
546.375053168707
 20
992.4009105674977
 30
0.0
 10
546.3755959370909
 20
992.074674079046
 30
0.0
 10
546.3763751173333
 20
991.8031178369708
 30
0.0
 10
546.3773327185991
 20
991.5890337271328
 30
0.0
 10
546.3786434756094
 20
991.4416387614098
 30
0.0
 10
546.3800720589672
 20
991.3486283884769
 30
0.0
 10
546.381326155458
 20
991.307264230479
 30
0.0
 10
546.3818492289006
 20
991.2900115767239
 30
0.0
 11
546.3818491917027
 21
997.786051951049
 31
0.0
 11
546.3802511109146
 21
997.1518038222413
 31
0.0
 11
546.378834034362
 21
996.5227320692469
 31
0.0
 11
546.3775747368035
 21
995.9040196371272
 31
0.0
 11
546.3765163880797
 21
995.3029633554441
 31
0.0
 11
546.3757008621702
 21
994.7248635865701
 31
0.0
 11
546.3751205093513
 21
994.1762556678099
 31
0.0
 11
546.3747608550386
 21
993.6630575141324
 31
0.0
 11
546.3746362573505
 21
993.1900660345705
 31
0.0
 11
546.3747609540578
 21
992.762662449228
 31
0.0
 11
546.3751197054419
 21
992.3836966796207
 31
0.0
 11
546.3756981752316
 21
992.0563730485082
 31
0.0
 11
546.3765115072597
 21
991.783953926478
 31
0.0
 11
546.3776062113396
 21
991.5690286590941
 31
0.0
 11
546.3791156925986
 21
991.414127889959
 31
0.0
 11
546.38038761331
 21
991.3417721167733
 31
0.0
 11
546.3818492289006
 21
991.2900115767239
 31
0.0
  0
SPLINE
  5
216
330
1F
100
AcDbEntity
  8
0
  6
Continuous
 62
     2
100
AcDbSpline
210
0.0
220
0.0
230
1.0
 70
     8
 71
     3
 72
    31
 73
    27
 74
    25
 42
0.0000000001
 43
0.0000000001
 44
0.00000001
 40
0.0
 40
0.0
 40
0.0
 40
0.0
 40
0.010184817935261
 40
0.0356131337030711
 40
0.0768988572823837
 40
0.1340954235997217
 40
0.2072999243744382
 40
0.2961521144714256
 40
0.4003379182012738
 40
0.5195388467029824
 40
0.7004182063074846
 40
0.9063940672826467
 40
1.13666624541189
 40
1.390174612121876
 40
1.665636289928679
 40
1.961533421068167
 40
2.275409909961204
 40
2.606998644712108
 40
2.95521209897615
 40
3.318985867684034
 40
3.6962869071825
 40
4.085090214584548
 40
4.683640818154352
 40
5.298483770608183
 40
5.923277492264456
 40
6.552971070869263
 40
6.552971070869263
 40
6.552971070869263
 40
6.552971070869263
 10
560.9041088177617
 20
1036.273067857712
 30
0.0
 10
560.9062534295424
 20
1036.270398439354
 30
0.0
 10
560.9137524684623
 20
1036.261064315415
 30
0.0
 10
560.918371565413
 20
1036.234971580914
 30
0.0
 10
560.9282585333052
 20
1036.195320905841
 30
0.0
 10
560.9379441176807
 20
1036.138681596888
 30
0.0
 10
560.9498192795016
 20
1036.066657542787
 30
0.0
 10
560.9628042178643
 20
1035.97882945577
 30
0.0
 10
560.9772172720294
 20
1035.875763345605
 30
0.0
 10
560.9949338642639
 20
1035.742172647914
 30
0.0
 10
561.0160808486744
 20
1035.574818657773
 30
0.0
 10
561.040709065997
 20
1035.370587607299
 30
0.0
 10
561.0671336935904
 20
1035.142191748046
 30
0.0
 10
561.0951468330819
 20
1034.890665415494
 30
0.0
 10
561.1245568867133
 20
1034.617286544612
 30
0.0
 10
561.155118961156
 20
1034.323794539214
 30
0.0
 10
561.1866272300231
 20
1034.011592511399
 30
0.0
 10
561.218888007221
 20
1033.681940605407
 30
0.0
 10
561.2517522836147
 20
1033.335637380194
 30
0.0
 10
561.2850155518415
 20
1032.974067645357
 30
0.0
 10
561.3184763044293
 20
1032.598930444163
 30
0.0
 10
561.3576471965278
 20
1032.145734630072
 30
0.0
 10
561.4018206085718
 20
1031.613497302177
 30
0.0
 10
561.4500292249736
 20
1031.002666421955
 30
0.0
 10
561.4967751091165
 20
1030.381309829362
 30
0.0
 10
561.5260891454768
 20
1029.964175622567
 30
0.0
 10
561.5408034119787
 20
1029.754793884402
 30
0.0
 11
560.9041088177617
 21
1036.273067857712
 31
0.0
 11
560.9101042844446
 21
1036.26483469941
 31
0.0
 11
560.9176102224036
 21
1036.240539429538
 31
0.0
 11
560.9265843871248
 21
1036.200240852156
 31
0.0
 11
560.9369845340944
 21
1036.143997771324
 31
0.0
 11
560.9487935100293
 21
1036.071752030819
 31
0.0
 11
560.961949608029
 21
1035.983879232011
 31
0.0
 11
560.976410646996
 21
1035.880701908674
 31
0.0
 11
560.9921344458317
 21
1035.762542594586
 31
0.0
 11
561.0148731250217
 21
1035.583098187597
 31
0.0
 11
561.0395840683361
 21
1035.378609986018
 31
0.0
 11
561.066088540738
 21
1035.149868234335
 31
0.0
 11
561.0941859577213
 21
1034.897921757577
 31
0.0
 11
561.12367819894
 21
1034.624043420266
 31
0.0
 11
561.1543469962108
 21
1034.329739942389
 31
0.0
 11
561.1858810021539
 21
1034.017451523217
 31
0.0
 11
561.2181907308061
 21
1033.68744065908
 31
0.0
 11
561.251099572055
 21
1033.340785761671
 31
0.0
 11
561.2844377958335
 21
1032.978542863003
 31
0.0
 11
561.3179664648292
 21
1032.602734530522
 31
0.0
 11
561.3514531141986
 21
1032.21537596774
 31
0.0
 11
561.4009744899107
 21
1031.618877469518
 31
0.0
 11
561.4493963885617
 21
1031.005944213842
 31
0.0
 11
561.4961424330535
 21
1030.382901677617
 31
0.0
 11
561.5408034119787
 21
1029.754793884402
 31
0.0
  0
SPLINE
  5
217
330
1F
100
AcDbEntity
  8
0
  6
Continuous
 62
     2
100
AcDbSpline
210
0.0
220
0.0
230
1.0
 70
     8
 71
     3
 72
    37
 73
    33
 74
    31
 42
0.0000000001
 43
0.0000000001
 44
0.00000001
 40
0.0
 40
0.0
 40
0.0
 40
0.0
 40
0.0009854789023721
 40
0.0019709578047889
 40
0.0064855526145874
 40
0.0117882234541969
 40
0.0268372336183213
 40
0.048335862670472
 40
0.0764937313353865
 40
0.1114975409101243
 40
0.1534592954721253
 40
0.2024908607220445
 40
0.2585115921387746
 40
0.3217915694189513
 40
0.3921289393383331
 40
0.4693218282865461
 40
0.5531683509170433
 40
0.6434666152519036
 40
0.7400147258879897
 40
0.8426107861275624
 40
0.9664154853816094
 40
1.096841551890292
 40
1.233117755928374
 40
1.37447286343705
 40
1.520135638654568
 40
1.669334846211941
 40
1.821299252950986
 40
2.0370912672617
 40
2.254379029047762
 40
2.471320907424759
 40
2.686075267546693
 40
2.896800477809322
 40
2.896800477809322
 40
2.896800477809322
 40
2.896800477809322
 10
564.3994915167357
 20
997.8479774568394
 30
0.0
 10
564.3991891651035
 20
997.8481056261612
 30
0.0
 10
564.3985844618392
 20
997.8483619648052
 30
0.0
 10
564.3966111168061
 20
997.8492538681061
 30
0.0
 10
564.3930180328841
 20
997.8498394904136
 30
0.0
 10
564.3849783135474
 20
997.8517784147346
 30
0.0
 10
564.3712564842367
 20
997.8543930241774
 30
0.0
 10
564.3500884200914
 20
997.8584825395016
 30
0.0
 10
564.3223244811827
 20
997.8635583756059
 30
0.0
 10
564.2878382837216
 20
997.869762004393
 30
0.0
 10
564.246477923435
 20
997.8770618991383
 30
0.0
 10
564.1982011704364
 20
997.8854761475318
 30
0.0
 10
564.1429057603991
 20
997.895007381135
 30
0.0
 10
564.0805958445176
 20
997.9056525145941
 30
0.0
 10
564.0113147032303
 20
997.917400298784
 30
0.0
 10
563.9352608168371
 20
997.9302129986784
 30
0.0
 10
563.8526326339758
 20
997.9440529395667
 30
0.0
 10
563.7636286306729
 20
997.958882517762
 30
0.0
 10
563.6684472783973
 20
997.9746641217195
 30
0.0
 10
563.562234573081
 20
997.9921942279709
 30
0.0
 10
563.4448653183679
 20
998.0114744196181
 30
0.0
 10
563.3164024454962
 20
998.0324805844547
 30
0.0
 10
563.1821513186588
 20
998.0543401417171
 30
0.0
 10
563.0428728353917
 20
998.0769268738393
 30
0.0
 10
562.8993279056051
 20
998.1001146377782
 30
0.0
 10
562.7522774461528
 20
998.1237773328996
 30
0.0
 10
562.5821309429834
 20
998.1510509683748
 30
0.0
 10
562.3895517495894
 20
998.1817756699547
 30
0.0
 10
562.1755564622468
 20
998.21574035957
 30
0.0
 10
561.9618753063572
 20
998.2494772024237
 30
0.0
 10
561.7503304035524
 20
998.2827174843485
 30
0.0
 10
561.6101997023042
 20
998.3045841641456
 30
0.0
 10
561.5407978472208
 20
998.3154139689558
 30
0.0
 11
564.3994915167357
 21
997.8479774568394
 31
0.0
 11
564.3985857128907
 21
997.8483656424413
 31
0.0
 11
564.3976799090458
 21
997.8487538280433
 31
0.0
 11
564.3932994410269
 21
997.8498461037558
 31
0.0
 11
564.3881231813266
 21
997.8509970397002
 31
0.0
 11
564.3733757264378
 21
997.8539945855667
 31
0.0
 11
564.3522595044897
 21
997.8580314434737
 31
0.0
 11
564.32456820415
 21
997.8631360936328
 31
0.0
 11
564.2901175249785
 21
997.8693342699269
 31
0.0
 11
564.2487964144746
 21
997.8766386982165
 31
0.0
 11
564.2004938201367
 21
997.8850621043617
 31
0.0
 11
564.1452881600517
 21
997.8945835245838
 31
0.0
 11
564.0829126320023
 21
997.905244154262
 31
0.0
 11
564.0135657290484
 21
997.9170064949257
 31
0.0
 11
563.9374459442502
 21
997.929833048104
 31
0.0
 11
563.8547517706677
 21
997.9436863153265
 31
0.0
 11
563.7656817013608
 21
997.9585287981226
 31
0.0
 11
563.6704342293892
 21
997.9743229980209
 31
0.0
 11
563.5692078478137
 21
997.9910314165518
 31
0.0
 11
563.4470408772694
 21
998.0111021630604
 31
0.0
 11
563.3183246195911
 21
998.0321517196879
 31
0.0
 11
563.1838199943727
 21
998.0540539931292
 31
0.0
 11
563.044287921208
 21
998.0766828900788
 31
0.0
 11
562.900489319691
 21
998.0999123172311
 31
0.0
 11
562.7531851094155
 21
998.1236161812803
 31
0.0
 11
562.6031362099757
 21
998.1476683889219
 31
0.0
 11
562.3900395667333
 21
998.1816685959672
 31
0.0
 11
562.1754379895506
 21
998.2157293430622
 31
0.0
 11
561.9611508977133
 21
998.2495645446379
 31
0.0
 11
561.7489977105081
 21
998.2828881151256
 31
0.0
 11
561.5407978472208
 21
998.3154139689558
 31
0.0
  0
SPLINE
  5
218
330
1F
100
AcDbEntity
  8
0
  6
Continuous
 62
     2
100
AcDbSpline
210
0.0
220
0.0
230
1.0
 70
     8
 71
     3
 72
    37
 73
    33
 74
    31
 42
0.0000000001
 43
0.0000000001
 44
0.00000001
 40
0.0
 40
0.0
 40
0.0
 40
0.0
 40
0.2107233787147287
 40
0.425476333315177
 40
0.6424170851171103
 40
0.8597038619168949
 40
1.075494903167267
 40
1.227458615806182
 40
1.376657113525518
 40
1.522319160579272
 40
1.663673523074553
 40
1.799948970904081
 40
1.930374280223676
 40
2.054178236825956
 40
2.156773766391846
 40
2.253321334926932
 40
2.343619094719896
 40
2.427465204876192
 40
2.504657835199014
 40
2.574995172160953
 40
2.63827542854385
 40
2.694296859926782
 40
2.743329500296674
 40
2.78529288828375
 40
2.820299149752461
 40
2.848460692144057
 40
2.869964813484546
 40
2.885022588433995
 40
2.890210615180784
 40
2.893884407854694
 40
2.895378826723315
 40
2.896873245591634
 40
2.896873245591634
 40
2.896873245591634
 40
2.896873245591634
 10
561.5408034119787
 20
1029.754793884402
 30
0.0
 10
561.6102078758556
 20
1029.765602980888
 30
0.0
 10
561.7503439964238
 20
1029.787427871736
 30
0.0
 10
561.9619046686196
 20
1029.82055815315
 30
0.0
 10
562.1756064609658
 20
1029.854156451198
 30
0.0
 10
562.3896269505046
 20
1029.887955336564
 30
0.0
 10
562.5822321964492
 20
1029.918510622607
 30
0.0
 10
562.7524038933975
 20
1029.945621572826
 30
0.0
 10
562.8994772821865
 20
1029.969136823678
 30
0.0
 10
563.0430454089092
 20
1029.992175930083
 30
0.0
 10
563.1823468540385
 20
1030.01461593811
 30
0.0
 10
563.3166202142306
 20
1030.036333795066
 30
0.0
 10
563.445104087904
 20
1030.057206439456
 30
0.0
 10
563.5624919551302
 20
1030.076368791693
 30
0.0
 10
563.668720530017
 20
1030.093798748442
 30
0.0
 10
563.7639148972363
 20
1030.109498439821
 30
0.0
 10
563.8529295760998
 20
1030.124260849506
 30
0.0
 10
563.9355658904267
 20
1030.138049800517
 30
0.0
 10
564.011625170084
 20
1030.150829063026
 30
0.0
 10
564.0809087714326
 20
1030.162562353556
 30
0.0
 10
564.1432180410391
 20
1030.173213199742
 30
0.0
 10
564.198509421992
 20
1030.182771914861
 30
0.0
 10
564.2467785640409
 20
1030.191236374812
 30
0.0
 10
564.2881277153306
 20
1030.198609650899
 30
0.0
 10
564.3225994365396
 20
1030.204907522264
 30
0.0
 10
564.3503451788629
 20
1030.210104443317
 30
0.0
 10
564.3714934702091
 20
1030.214324583635
 30
0.0
 10
564.3851517399512
 20
1030.217092227153
 30
0.0
 10
564.3928588475828
 20
1030.219065288154
 30
0.0
 10
564.3962722357649
 20
1030.219756262531
 30
0.0
 10
564.3982667192821
 20
1030.220747862107
 30
0.0
 10
564.3991745079566
 20
1030.221157209819
 30
0.0
 10
564.3996284022937
 20
1030.221361883676
 30
0.0
 11
561.5408034119787
 21
1029.754793884402
 31
0.0
 11
561.7490123061577
 21
1029.787249988939
 31
0.0
 11
561.961180835898
 21
1029.820466648878
 31
0.0
 11
562.1754886617692
 21
1029.854163022016
 31
0.0
 11
562.3901154443408
 21
1029.888058266152
 31
0.0
 11
562.6032408441827
 21
1029.921871539081
 31
0.0
 11
562.7533119030863
 21
1029.945780684581
 31
0.0
 11
562.9006390356515
 21
1029.969337164196
 31
0.0
 11
563.0444608217808
 21
1029.992418017439
 31
0.0
 11
563.1840158413772
 21
1030.014900283826
 31
0.0
 11
563.3185426743431
 21
1030.03666100287
 31
0.0
 11
563.4472799005814
 21
1030.057577214085
 31
0.0
 11
563.5694660999948
 21
1030.077525956985
 31
0.0
 11
563.6707075695336
 21
1030.094139431411
 31
0.0
 11
563.7659679710615
 21
1030.109852129804
 31
0.0
 11
563.855048605684
 21
1030.124627987102
 31
0.0
 11
563.9377507745078
 21
1030.138430938242
 31
0.0
 11
564.0138757786385
 21
1030.151224918165
 31
0.0
 11
564.0832249191825
 21
1030.162973861807
 31
0.0
 11
564.1455994972455
 21
1030.173641704107
 31
0.0
 11
564.2008008139337
 21
1030.183192380004
 31
0.0
 11
564.2490953152709
 21
1030.191668284807
 31
0.0
 11
564.2904046139809
 21
1030.199048513221
 31
0.0
 11
564.3248397492728
 21
1030.205346115896
 31
0.0
 11
564.3525117603567
 21
1030.210574143482
 31
0.0
 11
564.3736048159333
 21
1030.214758667478
 31
0.0
 11
564.3883252993596
 21
1030.217927887275
 31
0.0
 11
564.3933691876555
 21
1030.219142305813
 31
0.0
 11
564.3969115706886
 21
1030.220116099968
 31
0.0
 11
564.3982699864913
 21
1030.220738991822
 31
0.0
 11
564.3996284022937
 21
1030.221361883676
 31
0.0
  0
SPLINE
  5
219
330
1F
100
AcDbEntity
  8
0
  6
Continuous
 62
     2
100
AcDbSpline
210
0.0
220
0.0
230
1.0
 70
     8
 71
     3
 72
    23
 73
    19
 74
    17
 42
0.0000000001
 43
0.0000000001
 44
0.00000001
 40
0.0
 40
0.0
 40
0.0
 40
0.0
 40
0.0023021676355266
 40
0.0091867854603678
 40
0.0194332658722628
 40
0.0364084262602246
 40
0.0503296738102042
 40
0.0714129926513529
 40
0.1009745288433982
 40
0.1403304286173343
 40
0.1652364495125743
 40
0.1994300672056602
 40
0.2431492630318095
 40
0.2966320183895536
 40
0.3289218960949614
 40
0.3712256720870594
 40
0.4227122743104077
 40
0.4825506318428277
 40
0.4825506318428277
 40
0.4825506318428277
 40
0.4825506318428277
 10
545.8992989472197
 20
997.786051194032
 30
0.0
 10
545.9000662403384
 20
997.7860388167385
 30
0.0
 10
545.9031281187002
 20
997.7859894252274
 30
0.0
 10
545.9096060450653
 20
997.7859722545269
 30
0.0
 10
545.9209746983895
 20
997.7859700651205
 30
0.0
 10
545.9346890370866
 20
997.7859636629211
 30
0.0
 10
545.9520156004021
 20
997.7859618168361
 30
0.0
 10
545.9735376395537
 20
997.7859611287295
 30
0.0
 10
546.0035378889256
 20
997.7859637878025
 30
0.0
 10
546.0348123748611
 20
997.7859692430352
 30
0.0
 10
546.0676308866277
 20
997.785976834194
 30
0.0
 10
546.1019038302057
 20
997.785986226056
 30
0.0
 10
546.1457023509507
 20
997.78600014956
 30
0.0
 10
546.1888662910226
 20
997.7860159819005
 30
0.0
 10
546.2315584241633
 20
997.7860325881279
 30
0.0
 10
546.2735851743918
 20
997.7860449043288
 30
0.0
 10
546.324794752489
 20
997.786053889857
 30
0.0
 10
546.3619030724842
 20
997.7860526288526
 30
0.0
 10
546.3818491917027
 20
997.786051951049
 30
0.0
 11
545.8992989472197
 21
997.786051194032
 31
0.0
 11
545.9016008557355
 21
997.7860166541024
 31
0.0
 11
545.9084853621757
 21
997.7859774920167
 31
0.0
 11
545.9187318399532
 21
997.7859701444825
 31
0.0
 11
545.9357069993378
 21
997.785964307759
 31
0.0
 11
545.9496282467295
 21
997.7859622088263
 31
0.0
 11
545.970711565561
 21
997.785961571939
 31
0.0
 11
546.0002731016644
 21
997.7859638610626
 31
0.0
 11
546.0396290008716
 21
997.785970540162
 31
0.0
 11
546.0645350211083
 21
997.7859762675755
 31
0.0
 11
546.0987286375346
 21
997.7859855753874
 31
0.0
 11
546.1424478311637
 21
997.7859994354505
 31
0.0
 11
546.1959305830087
 21
997.7860188196177
 31
0.0
 11
546.2282204584757
 21
997.7860308428293
 31
0.0
 11
546.2705242326456
 21
997.7860432593883
 31
0.0
 11
546.3220108341707
 21
997.7860517389202
 31
0.0
 11
546.3818491917027
 21
997.786051951049
 31
0.0
  0
MTEXT
  5
21B
330
1F
100
AcDbEntity
  8
Symbole_ISO_
 62
     7
100
AcDbMText
 10
367.2049134955244
 20
745.9672728815447
 30
0.0
 40
6.9999998807907
 41
0.0
 71
     5
 72
     1
  1
G. Merafina
  7
CONVERTER_12
 73
     1
 44
0.75727272727273
  0
MTEXT
  5
21C
330
1F
100
AcDbEntity
  8
Symbole_ISO_
 62
     7
100
AcDbMText
 10
367.2049134955244
 20
761.6672728815447
 30
0.0
 40
6.9999998807907
 41
0.0
 71
     5
 72
     1
  1
31.10.2012
  7
CONVERTER_12
 73
     1
 44
0.75727272727273
  0
MTEXT
  5
21D
330
1F
100
AcDbEntity
  8
Symbole_ISO_
 62
     7
100
AcDbMText
 10
627.2799134955242
 20
762.9172728815447
 30
0.0
 40
5.0
 41
0.0
 71
     5
 72
     1
  1
Scale
  7
CONVERTER_11
 73
     1
 44
0.75727272727273
  0
MTEXT
  5
21E
330
1F
100
AcDbEntity
  8
Symbole_ISO_
 62
     7
100
AcDbMText
 10
337.4049134955242
 20
746.3672728815447
 30
0.0
 40
5.0
 41
0.0
 71
     4
 72
     1
  1
Sign.
  7
CONVERTER_11
 73
     1
 44
0.75727272727273
  0
MTEXT
  5
21F
330
1F
100
AcDbEntity
  8
Symbole_ISO_
 62
     7
100
AcDbMText
 10
337.4049134955242
 20
761.6672728815447
 30
0.0
 40
5.0
 41
0.0
 71
     4
 72
     1
  1
Date
  7
CONVERTER_11
 73
     1
 44
0.75727272727273
  0
TEXT
  5
221
330
1F
100
AcDbEntity
  8
Symbole_ISO_
 62
     7
100
AcDbText
 10
396.2049134955244
 20
743.3672728517427
 30
0.0
 40
8.00000011920928
  1
Dust cover for transportation for 10 poles hoods
 41
0.89999994635582
  7
CONVERTER_13
100
AcDbText
  0
TEXT
  5
222
330
1F
100
AcDbEntity
  8
Symbole_ISO_
 62
     7
100
AcDbText
 10
621.9103706371982
 20
746.117272881545
 30
0.0
 40
10.0
  1
1:2
 41
0.67499998211861
  7
CONVERTER_11
100
AcDbText
  0
TEXT
  5
223
330
1F
100
AcDbEntity
  8
Symbole_ISO_
 62
     7
100
AcDbText
 10
395.7007010527752
 20
757.694753130188
 30
0.0
 40
8.00000011920928
  1
CGCP 10 MB
 41
0.89999994635582
  7
CONVERTER_13
100
AcDbText
  0
MTEXT
  5
225
330
1F
100
AcDbEntity
  8
1
 62
     4
100
AcDbMText
 10
361.4326882185872
 20
798.69250149546
 30
0.0
 40
14.0
 41
0.0
 71
     2
 72
     1
  1
 
  7
CONVERTER_14
 73
     1
 44
1.32052821128451
  0
MTEXT
  5
226
330
1F
100
AcDbEntity
  8
1
 62
     4
100
AcDbMText
 10
402.4246197767654
 20
825.0441315662415
 30
0.0
 40
14.0
 41
0.0
 71
     2
 72
     1
  1
 
  7
CONVERTER_14
 73
     1
 44
1.32052821128451
  0
DIMENSION
  5
233
330
1F
100
AcDbEntity
  8
1
100
AcDbDimension
  2
*D2
 10
284.6268844880092
 20
969.0859895201357
 30
0.0
 11
358.66819892388
 21
969.0859895201357
 31
0.0
 70
    32
  1
<>
 71
     5
 42
-1.0
 53
0.00013888888889
  3
ME10_DIM_10
100
AcDbAlignedDimension
 13
432.7095133597509
 23
992.0846972515754
 33
0.0
 14
284.6268844880092
 24
1030.575981865618
 34
0.0
100
AcDbRotatedDimension
  0
DIMENSION
  5
23F
330
1F
100
AcDbEntity
  8
1
100
AcDbDimension
  2
*D3
 10
448.076660665695
 20
892.745009400404
 30
0.0
 11
448.076660665695
 21
879.4950107948841
 31
0.0
 70
    32
  1
27
 71
     5
 42
-1.0
 53
90.0
  3
ME10_DIM_11
100
AcDbAlignedDimension
 13
403.6599210621389
 23
866.2450121893644
 33
0.0
 14
403.8770517153398
 24
892.745009400404
 34
0.0
 50
90.0
100
AcDbRotatedDimension
  0
DIMENSION
  5
24B
330
1F
100
AcDbEntity
  8
1
100
AcDbDimension
  2
*D4
 10
524.1249881088936
 20
1043.984218393904
 30
0.0
 11
524.1249881088936
 21
1014.035103957018
 31
0.0
 70
    32
  1
<>
 71
     5
 42
-1.0
 53
90.0
  3
ME10_DIM_12
100
AcDbAlignedDimension
 13
538.8992989472256
 23
984.0859895201316
 33
0.0
 14
538.8992989472256
 24
1043.984218393904
 34
0.0
 50
90.0
100
AcDbRotatedDimension
  0
HATCH
  5
24C
330
1F
100
AcDbEntity
  8
Schraffur
  6
Continuous
 62
     7
100
AcDbHatch
 10
0.0
 20
0.0
 30
0.0
210
0.0
220
0.0
230
1.0
  2
SOLID
 70
     1
 71
     1
 91
        1
 92
        1
 93
        4
 72
     1
 10
658.9159656138911
 20
756.9990402773329
 11
658.9159656138911
 21
750.3859627135865
 72
     2
 10
658.249298947225
 20
750.3859627135865
 40
0.6666666666656056
 50
0.0
 51
180.0
 73
     0
 72
     1
 10
657.5826322805594
 20
750.3859627135865
 11
657.5826322805594
 21
756.9990402773329
 72
     2
 10
658.249298947225
 20
756.9990402773329
 40
0.6666666666660603
 50
180.0
 51
360.0
 73
     0
 97
        4
330
179
330
1E0
330
17A
330
1E1
 75
     0
 76
     1
 98
        1
 10
0.0
 20
0.0
  0
HATCH
  5
24D
330
1F
100
AcDbEntity
  8
Schraffur
  6
Continuous
 62
     7
100
AcDbHatch
 10
0.0
 20
0.0
 30
0.0
210
0.0
220
0.0
230
1.0
  2
SOLID
 70
     1
 71
     1
 91
        1
 92
        1
 93
        7
 72
     1
 10
661.5826342981652
 20
749.2325426275213
 11
661.5826342981652
 21
758.5791780434059
 72
     2
 10
660.9159676314973
 20
758.5791780434059
 40
0.6666666666678793
 50
0.0
 51
180.0
 73
     1
 72
     1
 10
660.2493009648313
 20
758.5791780434059
 11
660.2493009648313
 21
749.2325451711837
 72
     2
 10
661.5826387022873
 20
749.2325451711837
 40
1.333337737456077
 50
180.0
 51
240.0183606311383
 73
     1
 72
     1
 10
660.9163398967951
 20
748.0776272416643
 11
665.2516103061391
 21
745.576509697812
 72
     2
 10
665.5847586084653
 20
746.1539667551777
 40
0.6666666666666282
 50
240.0183606311663
 51
420.0183606312001
 73
     1
 72
     1
 10
665.9179069107911
 20
746.7314238125435
 11
661.5826342981652
 21
749.2325426275213
 97
        7
330
1DF
330
177
330
1DE
330
176
330
1DD
330
175
330
178
 75
     0
 76
     1
 98
        1
 10
0.0
 20
0.0
  0
HATCH
  5
24E
330
1F
100
AcDbEntity
  8
Schraffur
  6
Continuous
 62
     7
100
AcDbHatch
 10
0.0
 20
0.0
 30
0.0
210
0.0
220
0.0
230
1.0
  2
SOLID
 70
     1
 71
     1
 91
        1
 92
        1
 93
       13
 72
     2
 10
663.4459088646952
 20
760.1966174288215
 40
0.5299324249505502
 50
29.99999999999078
 51
180.0
 73
     1
 72
     1
 10
662.9159764397434
 20
760.1966174288215
 11
662.9159764397452
 21
750.3859627135865
 72
     2
 10
663.5826431064113
 20
750.3859627135865
 40
0.6666666666660603
 50
180.0
 51
360.0
 73
     1
 72
     1
 10
664.2493097730774
 20
750.3859627135865
 11
664.2493097730774
 21
757.1982933399529
 72
     1
 10
664.2493097730774
 20
757.1982933399529
 11
665.9606238126314
 21
754.2342104757415
 72
     2
 10
666.249298947225
 20
754.4008771424081
 40
0.3333333333322915
 50
210.0000000000959
 51
329.9999999999432
 73
     1
 72
     1
 10
666.5379740818191
 20
754.2342104757415
 11
668.2492881213732
 21
757.1982933399529
 72
     1
 10
668.2492881213732
 20
757.1982933399529
 11
668.2492881213732
 21
747.2673583273709
 72
     2
 10
668.9159547880392
 20
747.2673583273709
 40
0.6666666666660603
 50
180.0
 51
360.0
 73
     1
 72
     1
 10
669.5826214547071
 20
747.2673583273709
 11
669.5826214547071
 21
760.1966174288214
 72
     2
 10
669.0526890297554
 20
760.1966174288214
 40
0.5299324249517667
 50
0.0
 51
149.999999999974
 73
     1
 72
     1
 10
668.5937540874595
 20
760.4615836412967
 11
666.249298947225
 21
756.4008682223451
 72
     1
 10
666.249298947225
 20
756.4008682223451
 11
663.9048438069915
 21
760.4615836412967
 97
       13
330
173
330
1DC
330
172
330
1DB
330
171
330
170
330
1DA
330
16F
330
16E
330
1D9
330
16D
330
1D8
330
174
 75
     0
 76
     1
 98
        1
 10
0.0
 20
0.0
  0
HATCH
  5
24F
330
1F
100
AcDbEntity
  8
1
  6
Continuous
 62
     7
100
AcDbHatch
 10
0.0
 20
0.0
 30
0.0
210
0.0
220
0.0
230
1.0
  2
SOLID
 70
     1
 71
     1
 91
        1
 92
        1
 93
       14
 72
     1
 10
673.9883874218192
 20
756.4215832199671
 11
672.2492969296193
 21
757.4249046577745
 72
     1
 10
672.2492969296193
 20
757.4249046577745
 11
672.2492969296193
 21
754.3591681621265
 72
     1
 10
672.2492969296193
 20
754.3591681621265
 11
674.3215357241454
 21
754.3591681621265
 72
     2
 10
674.3215357241454
 20
753.6925014954597
 40
0.6666666666667993
 50
270.0
 51
450.0
 73
     0
 72
     1
 10
674.3215357241454
 20
753.0258348287929
 11
672.2492969296193
 21
753.0258348287929
 72
     1
 10
672.2492969296193
 20
753.0258348287929
 11
672.2492969296193
 21
749.9600983331449
 72
     1
 10
672.2492969296193
 20
749.9600983331449
 11
673.9883874218192
 21
750.9634197709523
 72
     2
 10
674.3215357241454
 20
750.3859627135867
 40
0.6666666666665145
 50
240.0183606311614
 51
420.018360631205
 73
     0
 72
     1
 10
674.6546840264712
 20
749.8085056562207
 11
671.9157785652794
 21
748.2283678901478
 72
     2
 10
671.5826302629525
 20
748.8058249475139
 40
0.6666666666672536
 50
60.01836063113016
 51
179.9999999999707
 73
     0
 72
     1
 10
670.9159635962853
 20
748.8058249475135
 11
670.9159635962853
 21
758.5791780434059
 72
     2
 10
671.5826302629525
 20
758.5791780434056
 40
0.6666666666672536
 50
180.0000000000293
 51
299.9816393688699
 73
     0
 72
     1
 10
671.9157785652794
 20
759.1566351007717
 11
674.6546840264712
 21
757.5764973346987
 72
     2
 10
674.3215357241454
 20
756.9990402773328
 40
0.6666666666665145
 50
299.981639368795
 51
479.9816393688387
 73
     0
 97
       14
330
150
330
1C6
330
158
330
1C7
330
157
330
1D2
330
156
330
155
330
154
330
1D1
330
153
330
152
330
151
330
1D0
 75
     0
 76
     1
 98
        1
 10
0.0
 20
0.0
  0
ENDSEC
  0
SECTION
  2
OBJECTS
  0
DICTIONARY
  5
C
330
0
100
AcDbDictionary
281
     1
  3
ACAD_GROUP
350
D
  3
ACAD_LAYOUT
350
1A
  3
ACAD_MATERIAL
350
3B
  3
ACAD_MLEADERSTYLE
350
252
  3
ACAD_MLINESTYLE
350
17
  3
ACAD_PLOTSETTINGS
350
19
  3
ACAD_PLOTSTYLENAME
350
E
  3
ACAD_SCALELIST
350
4D
  3
ACAD_VISUALSTYLE
350
2A
  3
AcDbVariableDictionary
350
250
  0
DICTIONARY
  5
D
102
{ACAD_REACTORS
330
C
102
}
330
C
100
AcDbDictionary
281
     1
  0
DICTIONARY
  5
1A
102
{ACAD_REACTORS
330
C
102
}
330
C
100
AcDbDictionary
281
     1
  3
Layout1
350
1E
  3
Layout2
350
26
  3
Model
350
22
  0
DICTIONARY
  5
3B
102
{ACAD_REACTORS
330
C
102
}
330
C
100
AcDbDictionary
281
     1
  3
ByBlock
350
3D
  3
ByLayer
350
3C
  3
Global
350
3E
  0
DICTIONARY
  5
252
102
{ACAD_REACTORS
330
C
102
}
330
C
100
AcDbDictionary
281
     1
  0
DICTIONARY
  5
17
102
{ACAD_REACTORS
330
C
102
}
330
C
100
AcDbDictionary
281
     1
  3
Standard
350
18
  0
DICTIONARY
  5
19
102
{ACAD_REACTORS
330
C
102
}
330
C
100
AcDbDictionary
281
     1
  0
ACDBDICTIONARYWDFLT
  5
E
102
{ACAD_REACTORS
330
C
102
}
330
C
100
AcDbDictionary
281
     1
  3
Normal
350
F
100
AcDbDictionaryWithDefault
340
F
  0
DICTIONARY
  5
4D
102
{ACAD_REACTORS
330
C
102
}
330
C
100
AcDbDictionary
281
     1
  3
A0
350
4E
  3
A1
350
4F
  3
A2
350
50
  3
A3
350
51
  3
A4
350
52
  3
A5
350
53
  3
A6
350
54
  3
A7
350
55
  3
A8
350
56
  3
A9
350
57
  3
B0
350
58
  3
B1
350
59
  3
B2
350
5A
  3
B3
350
5B
  3
B4
350
5C
  3
B5
350
5D
  3
B6
350
5E
  3
B7
350
5F
  3
B8
350
60
  3
B9
350
61
  3
C0
350
62
  3
C1
350
63
  3
C2
350
64
  3
C3
350
65
  3
C4
350
66
  3
C5
350
67
  3
C6
350
68
  3
C7
350
69
  3
C8
350
6A
  3
C9
350
6B
  3
D0
350
6C
  3
D1
350
6D
  3
D2
350
6E
  0
DICTIONARY
  5
2A
102
{ACAD_REACTORS
330
C
102
}
330
C
100
AcDbDictionary
281
     1
  3
2dWireframe
350
2F
  3
3D Hidden
350
31
  3
3dWireframe
350
30
  3
Basic
350
32
  3
Brighten
350
36
  3
ColorChange
350
3A
  3
Conceptual
350
34
  3
Dim
350
35
  3
Facepattern
350
39
  3
Flat
350
2B
  3
FlatWithEdges
350
2C
  3
Gouraud
350
2D
  3
GouraudWithEdges
350
2E
  3
Linepattern
350
38
  3
Realistic
350
33
  3
Thicken
350
37
  0
DICTIONARY
  5
250
102
{ACAD_REACTORS
330
C
102
}
330
C
100
AcDbDictionary
281
     1
  3
CANNOSCALE
350
253
  3
DIMASSOC
350
254
  3
HIDETEXT
350
255
  0
LAYOUT
  5
1E
102
{ACAD_REACTORS
330
1A
102
}
330
1A
100
AcDbPlotSettings
  1

  2
none_device
  4

  6

 40
0.0
 41
0.0
 42
0.0
 43
0.0
 44
0.0
 45
0.0
 46
0.0
 47
0.0
 48
0.0
 49
0.0
140
0.0
141
0.0
142
1.0
143
1.0
 70
   688
 72
     0
 73
     0
 74
     5
  7

 75
    16
147
1.0
148
0.0
149
0.0
100
AcDbLayout
  1
Layout1
 70
     1
 71
     1
 10
0.0
 20
0.0
 11
12.0
 21
9.0
 12
0.0
 22
0.0
 32
0.0
 14
1.00000000000000E+20
 24
1.00000000000000E+20
 34
1.00000000000000E+20
 15
-1.00000000000000E+20
 25
-1.00000000000000E+20
 35
-1.00000000000000E+20
146
0.0
 13
0.0
 23
0.0
 33
0.0
 16
1.0
 26
0.0
 36
0.0
 17
0.0
 27
1.0
 37
0.0
 76
     0
330
1B
  0
LAYOUT
  5
26
102
{ACAD_REACTORS
330
1A
102
}
330
1A
100
AcDbPlotSettings
  1

  2
none_device
  4

  6

 40
0.0
 41
0.0
 42
0.0
 43
0.0
 44
0.0
 45
0.0
 46
0.0
 47
0.0
 48
0.0
 49
0.0
140
0.0
141
0.0
142
1.0
143
1.0
 70
   688
 72
     0
 73
     0
 74
     5
  7

 75
    16
147
1.0
148
0.0
149
0.0
100
AcDbLayout
  1
Layout2
 70
     1
 71
     2
 10
0.0
 20
0.0
 11
0.0
 21
0.0
 12
0.0
 22
0.0
 32
0.0
 14
0.0
 24
0.0
 34
0.0
 15
0.0
 25
0.0
 35
0.0
146
0.0
 13
0.0
 23
0.0
 33
0.0
 16
1.0
 26
0.0
 36
0.0
 17
0.0
 27
1.0
 37
0.0
 76
     0
330
23
  0
LAYOUT
  5
22
102
{ACAD_REACTORS
330
1A
102
}
330
1A
100
AcDbPlotSettings
  1

  2
none_device
  4

  6

 40
0.0
 41
0.0
 42
0.0
 43
0.0
 44
0.0
 45
0.0
 46
0.0
 47
0.0
 48
0.0
 49
0.0
140
0.0
141
0.0
142
1.0
143
1.0
 70
  1712
 72
     0
 73
     0
 74
     0
  7

 75
     0
147
1.0
148
0.0
149
0.0
100
AcDbLayout
  1
Model
 70
     1
 71
     0
 10
0.0
 20
0.0
 11
12.0
 21
9.0
 12
0.0
 22
0.0
 32
0.0
 14
134.3992989472256
 24
738.1925014954597
 34
0.0
 15
689.3992989472256
 25
1139.19250149546
 35
0.0
146
0.0
 13
0.0
 23
0.0
 33
0.0
 16
1.0
 26
0.0
 36
0.0
 17
0.0
 27
1.0
 37
0.0
 76
     0
330
1F
331
29
  0
MATERIAL
  5
3D
102
{ACAD_REACTORS
330
3B
102
}
102
{ACAD_XDICTIONARY
360
278
102
}
330
3B
100
AcDbMaterial
  1
ByBlock
  0
MATERIAL
  5
3C
102
{ACAD_REACTORS
330
3B
102
}
102
{ACAD_XDICTIONARY
360
276
102
}
330
3B
100
AcDbMaterial
  1
ByLayer
  0
MATERIAL
  5
3E
102
{ACAD_REACTORS
330
3B
102
}
102
{ACAD_XDICTIONARY
360
27A
102
}
330
3B
100
AcDbMaterial
  1
Global
  0
MLINESTYLE
  5
18
102
{ACAD_REACTORS
330
17
102
}
330
17
100
AcDbMlineStyle
  2
Standard
 70
     0
  3

 62
   256
 51
90.0
 52
90.0
 71
     2
 49
0.5
 62
   256
  6
BYLAYER
 49
-0.5
 62
   256
  6
BYLAYER
  0
ACDBPLACEHOLDER
  5
F
102
{ACAD_REACTORS
330
E
102
}
330
E
  0
SCALE
  5
4E
102
{ACAD_REACTORS
330
4D
102
}
330
4D
100
AcDbScale
 70
     0
300
1:1
140
1.0
141
1.0
290
     1
  0
SCALE
  5
4F
102
{ACAD_REACTORS
330
4D
102
}
330
4D
100
AcDbScale
 70
     0
300
1:2
140
1.0
141
2.0
290
     0
  0
SCALE
  5
50
102
{ACAD_REACTORS
330
4D
102
}
330
4D
100
AcDbScale
 70
     0
300
1:4
140
1.0
141
4.0
290
     0
  0
SCALE
  5
51
102
{ACAD_REACTORS
330
4D
102
}
330
4D
100
AcDbScale
 70
     0
300
1:5
140
1.0
141
5.0
290
     0
  0
SCALE
  5
52
102
{ACAD_REACTORS
330
4D
102
}
330
4D
100
AcDbScale
 70
     0
300
1:8
140
1.0
141
8.0
290
     0
  0
SCALE
  5
53
102
{ACAD_REACTORS
330
4D
102
}
330
4D
100
AcDbScale
 70
     0
300
1:10
140
1.0
141
10.0
290
     0
  0
SCALE
  5
54
102
{ACAD_REACTORS
330
4D
102
}
330
4D
100
AcDbScale
 70
     0
300
1:16
140
1.0
141
16.0
290
     0
  0
SCALE
  5
55
102
{ACAD_REACTORS
330
4D
102
}
330
4D
100
AcDbScale
 70
     0
300
1:20
140
1.0
141
20.0
290
     0
  0
SCALE
  5
56
102
{ACAD_REACTORS
330
4D
102
}
330
4D
100
AcDbScale
 70
     0
300
1:30
140
1.0
141
30.0
290
     0
  0
SCALE
  5
57
102
{ACAD_REACTORS
330
4D
102
}
330
4D
100
AcDbScale
 70
     0
300
1:40
140
1.0
141
40.0
290
     0
  0
SCALE
  5
58
102
{ACAD_REACTORS
330
4D
102
}
330
4D
100
AcDbScale
 70
     0
300
1:50
140
1.0
141
50.0
290
     0
  0
SCALE
  5
59
102
{ACAD_REACTORS
330
4D
102
}
330
4D
100
AcDbScale
 70
     0
300
1:100
140
1.0
141
100.0
290
     0
  0
SCALE
  5
5A
102
{ACAD_REACTORS
330
4D
102
}
330
4D
100
AcDbScale
 70
     0
300
2:1
140
2.0
141
1.0
290
     0
  0
SCALE
  5
5B
102
{ACAD_REACTORS
330
4D
102
}
330
4D
100
AcDbScale
 70
     0
300
4:1
140
4.0
141
1.0
290
     0
  0
SCALE
  5
5C
102
{ACAD_REACTORS
330
4D
102
}
330
4D
100
AcDbScale
 70
     0
300
8:1
140
8.0
141
1.0
290
     0
  0
SCALE
  5
5D
102
{ACAD_REACTORS
330
4D
102
}
330
4D
100
AcDbScale
 70
     0
300
10:1
140
10.0
141
1.0
290
     0
  0
SCALE
  5
5E
102
{ACAD_REACTORS
330
4D
102
}
330
4D
100
AcDbScale
 70
     0
300
100:1
140
100.0
141
1.0
290
     0
  0
SCALE
  5
5F
102
{ACAD_REACTORS
330
4D
102
}
330
4D
100
AcDbScale
 70
     0
300
1/128" = 1'-0"
140
0.0078125
141
12.0
290
     0
  0
SCALE
  5
60
102
{ACAD_REACTORS
330
4D
102
}
330
4D
100
AcDbScale
 70
     0
300
1/64" = 1'-0"
140
0.015625
141
12.0
290
     0
  0
SCALE
  5
61
102
{ACAD_REACTORS
330
4D
102
}
330
4D
100
AcDbScale
 70
     0
300
1/32" = 1'-0"
140
0.03125
141
12.0
290
     0
  0
SCALE
  5
62
102
{ACAD_REACTORS
330
4D
102
}
330
4D
100
AcDbScale
 70
     0
300
1/16" = 1'-0"
140
0.0625
141
12.0
290
     0
  0
SCALE
  5
63
102
{ACAD_REACTORS
330
4D
102
}
330
4D
100
AcDbScale
 70
     0
300
3/32" = 1'-0"
140
0.09375
141
12.0
290
     0
  0
SCALE
  5
64
102
{ACAD_REACTORS
330
4D
102
}
330
4D
100
AcDbScale
 70
     0
300
1/8" = 1'-0"
140
0.125
141
12.0
290
     0
  0
SCALE
  5
65
102
{ACAD_REACTORS
330
4D
102
}
330
4D
100
AcDbScale
 70
     0
300
3/16" = 1'-0"
140
0.1875
141
12.0
290
     0
  0
SCALE
  5
66
102
{ACAD_REACTORS
330
4D
102
}
330
4D
100
AcDbScale
 70
     0
300
1/4" = 1'-0"
140
0.25
141
12.0
290
     0
  0
SCALE
  5
67
102
{ACAD_REACTORS
330
4D
102
}
330
4D
100
AcDbScale
 70
     0
300
3/8" = 1'-0"
140
0.375
141
12.0
290
     0
  0
SCALE
  5
68
102
{ACAD_REACTORS
330
4D
102
}
330
4D
100
AcDbScale
 70
     0
300
1/2" = 1'-0"
140
0.5
141
12.0
290
     0
  0
SCALE
  5
69
102
{ACAD_REACTORS
330
4D
102
}
330
4D
100
AcDbScale
 70
     0
300
3/4" = 1'-0"
140
0.75
141
12.0
290
     0
  0
SCALE
  5
6A
102
{ACAD_REACTORS
330
4D
102
}
330
4D
100
AcDbScale
 70
     0
300
1" = 1'-0"
140
1.0
141
12.0
290
     0
  0
SCALE
  5
6B
102
{ACAD_REACTORS
330
4D
102
}
330
4D
100
AcDbScale
 70
     0
300
1-1/2" = 1'-0"
140
1.5
141
12.0
290
     0
  0
SCALE
  5
6C
102
{ACAD_REACTORS
330
4D
102
}
330
4D
100
AcDbScale
 70
     0
300
3" = 1'-0"
140
3.0
141
12.0
290
     0
  0
SCALE
  5
6D
102
{ACAD_REACTORS
330
4D
102
}
330
4D
100
AcDbScale
 70
     0
300
6" = 1'-0"
140
6.0
141
12.0
290
     0
  0
SCALE
  5
6E
102
{ACAD_REACTORS
330
4D
102
}
330
4D
100
AcDbScale
 70
     0
300
1'-0" = 1'-0"
140
12.0
141
12.0
290
     0
  0
VISUALSTYLE
  5
2F
102
{ACAD_REACTORS
330
2A
102
}
102
{ACAD_XDICTIONARY
360
25E
102
}
330
2A
100
AcDbVisualStyle
  2
2dWireframe
 70
     4
 71
     0
 72
     2
 73
     0
 90
        0
 40
-0.6
 41
-30.0
 62
     5
 63
     7
 74
     1
 91
        4
 64
     7
 65
   257
 75
     1
175
     1
 42
1.0
 92
        0
 66
   257
 43
1.0
 76
     1
 77
     6
 78
     2
 67
     7
 79
     5
170
     0
171
     0
290
     0
174
     0
 93
        1
 44
0.0
173
     0
291
     0
 45
0.0
1001
ACAD
1000
AcDbSavedByObjectVersion
1070
     0
  0
VISUALSTYLE
  5
31
102
{ACAD_REACTORS
330
2A
102
}
102
{ACAD_XDICTIONARY
360
262
102
}
330
2A
100
AcDbVisualStyle
  2
3D Hidden
 70
     6
 71
     1
 72
     2
 73
     2
 90
        0
 40
-0.6
 41
-30.0
 62
     5
 63
     7
 74
     2
 91
        2
 64
     7
 65
   257
 75
     2
175
     1
 42
40.0
 92
        0
 66
   257
 43
1.0
 76
     1
 77
     6
 78
     2
 67
     7
 79
     3
170
     0
171
     0
290
     0
174
     0
 93
        1
 44
0.0
173
     0
291
     0
 45
0.0
1001
ACAD
1000
AcDbSavedByObjectVersion
1070
     0
  0
VISUALSTYLE
  5
30
102
{ACAD_REACTORS
330
2A
102
}
102
{ACAD_XDICTIONARY
360
260
102
}
330
2A
100
AcDbVisualStyle
  2
3dWireframe
 70
     5
 71
     0
 72
     2
 73
     0
 90
        0
 40
-0.6
 41
-30.0
 62
     5
 63
     7
 74
     1
 91
        4
 64
     7
 65
   257
 75
     1
175
     1
 42
1.0
 92
        0
 66
   257
 43
1.0
 76
     1
 77
     6
 78
     2
 67
     7
 79
     5
170
     0
171
     0
290
     0
174
     0
 93
        1
 44
0.0
173
     0
291
     0
 45
0.0
1001
ACAD
1000
AcDbSavedByObjectVersion
1070
     0
  0
VISUALSTYLE
  5
32
102
{ACAD_REACTORS
330
2A
102
}
102
{ACAD_XDICTIONARY
360
264
102
}
330
2A
100
AcDbVisualStyle
  2
Basic
 70
     7
 71
     1
 72
     0
 73
     1
 90
        0
 40
-0.6
 41
-30.0
 62
     5
 63
     7
 74
     0
 91
        4
 64
     7
 65
   257
 75
     1
175
     1
 42
1.0
 92
        8
 66
     7
 43
1.0
 76
     1
 77
     6
 78
     2
 67
     7
 79
     5
170
     0
171
     0
290
     0
174
     0
 93
        1
 44
0.0
173
     0
291
     1
 45
0.0
1001
ACAD
1000
AcDbSavedByObjectVersion
1070
     0
  0
VISUALSTYLE
  5
36
102
{ACAD_REACTORS
330
2A
102
}
102
{ACAD_XDICTIONARY
360
26C
102
}
330
2A
100
AcDbVisualStyle
  2
Brighten
 70
    12
 71
     2
 72
     2
 73
     0
 90
        0
 40
-0.6
 41
-30.0
 62
     5
 63
     7
 74
     1
 91
        4
 64
     7
 65
   257
 75
     1
175
     1
 42
1.0
 92
        8
 66
     7
 43
1.0
 76
     1
 77
     6
 78
     2
 67
     7
 79
     5
170
     0
171
     0
290
     0
174
     0
 93
        1
 44
50.0
173
     0
291
     1
 45
0.0
1001
ACAD
1000
AcDbSavedByObjectVersion
1070
     0
  0
VISUALSTYLE
  5
3A
102
{ACAD_REACTORS
330
2A
102
}
102
{ACAD_XDICTIONARY
360
274
102
}
330
2A
100
AcDbVisualStyle
  2
ColorChange
 70
    16
 71
     2
 72
     2
 73
     3
 90
        0
 40
-0.6
 41
-30.0
 62
     5
 63
     8
 74
     1
 91
        4
 64
     7
 65
   257
 75
     1
175
     1
 42
1.0
 92
        8
 66
     8
 43
1.0
 76
     1
 77
     6
 78
     2
 67
     7
 79
     5
170
     0
171
     0
290
     0
174
     0
 93
        1
 44
0.0
173
     0
291
     1
 45
0.0
1001
ACAD
1000
AcDbSavedByObjectVersion
1070
     0
  0
VISUALSTYLE
  5
34
102
{ACAD_REACTORS
330
2A
102
}
102
{ACAD_XDICTIONARY
360
268
102
}
330
2A
100
AcDbVisualStyle
  2
Conceptual
 70
     9
 71
     3
 72
     2
 73
     0
 90
        0
 40
-0.6
 41
-30.0
 62
     5
 63
     7
 74
     2
 91
        2
 64
     7
 65
   257
 75
     1
175
     1
 42
40.0
 92
        8
 66
     7
 43
1.0
 76
     1
 77
     6
 78
     2
 67
     7
 79
     3
170
     0
171
     0
290
     0
174
     0
 93
        1
 44
0.0
173
     0
291
     0
 45
0.0
1001
ACAD
1000
AcDbSavedByObjectVersion
1070
     0
  0
VISUALSTYLE
  5
35
102
{ACAD_REACTORS
330
2A
102
}
102
{ACAD_XDICTIONARY
360
26A
102
}
330
2A
100
AcDbVisualStyle
  2
Dim
 70
    11
 71
     2
 72
     2
 73
     0
 90
        0
 40
-0.6
 41
-30.0
 62
     5
 63
     7
 74
     1
 91
        4
 64
     7
 65
   257
 75
     1
175
     1
 42
1.0
 92
        8
 66
     7
 43
1.0
 76
     1
 77
     6
 78
     2
 67
     7
 79
     5
170
     0
171
     0
290
     0
174
     0
 93
        1
 44
-50.0
173
     0
291
     1
 45
0.0
1001
ACAD
1000
AcDbSavedByObjectVersion
1070
     0
  0
VISUALSTYLE
  5
39
102
{ACAD_REACTORS
330
2A
102
}
102
{ACAD_XDICTIONARY
360
272
102
}
330
2A
100
AcDbVisualStyle
  2
Facepattern
 70
    15
 71
     2
 72
     2
 73
     0
 90
        0
 40
-0.6
 41
-30.0
 62
     5
 63
     7
 74
     1
 91
        4
 64
     7
 65
   257
 75
     1
175
     1
 42
1.0
 92
        8
 66
     7
 43
1.0
 76
     1
 77
     6
 78
     2
 67
     7
 79
     5
170
     0
171
     0
290
     0
174
     0
 93
        1
 44
0.0
173
     0
291
     1
 45
0.0
1001
ACAD
1000
AcDbSavedByObjectVersion
1070
     0
  0
VISUALSTYLE
  5
2B
102
{ACAD_REACTORS
330
2A
102
}
102
{ACAD_XDICTIONARY
360
256
102
}
330
2A
100
AcDbVisualStyle
  2
Flat
 70
     0
 71
     2
 72
     1
 73
     1
 90
        2
 40
-0.6
 41
30.0
 62
     5
 63
     7
 74
     0
 91
        4
 64
     7
 65
   257
 75
     1
175
     1
 42
1.0
 92
        8
 66
     7
 43
1.0
 76
     1
 77
     6
 78
     2
 67
     7
 79
     5
170
     0
171
     0
290
     0
174
     0
 93
       13
 44
0.0
173
     0
291
     1
 45
0.0
1001
ACAD
1000
AcDbSavedByObjectVersion
1070
     0
  0
VISUALSTYLE
  5
2C
102
{ACAD_REACTORS
330
2A
102
}
102
{ACAD_XDICTIONARY
360
258
102
}
330
2A
100
AcDbVisualStyle
  2
FlatWithEdges
 70
     1
 71
     2
 72
     1
 73
     1
 90
        2
 40
-0.6
 41
30.0
 62
     5
 63
     7
 74
     1
 91
        4
 64
     7
 65
   257
 75
     1
175
     1
 42
1.0
 92
        0
 66
   257
 43
1.0
 76
     1
 77
     6
 78
     2
 67
     7
 79
     5
170
     0
171
     0
290
     0
174
     0
 93
       13
 44
0.0
173
     0
291
     1
 45
0.0
1001
ACAD
1000
AcDbSavedByObjectVersion
1070
     0
  0
VISUALSTYLE
  5
2D
102
{ACAD_REACTORS
330
2A
102
}
102
{ACAD_XDICTIONARY
360
25A
102
}
330
2A
100
AcDbVisualStyle
  2
Gouraud
 70
     2
 71
     2
 72
     2
 73
     1
 90
        2
 40
-0.6
 41
30.0
 62
     5
 63
     7
 74
     0
 91
        4
 64
     7
 65
   257
 75
     1
175
     1
 42
1.0
 92
        0
 66
     7
 43
1.0
 76
     1
 77
     6
 78
     2
 67
     7
 79
     5
170
     0
171
     0
290
     0
174
     0
 93
       13
 44
0.0
173
     0
291
     1
 45
0.0
1001
ACAD
1000
AcDbSavedByObjectVersion
1070
     0
  0
VISUALSTYLE
  5
2E
102
{ACAD_REACTORS
330
2A
102
}
102
{ACAD_XDICTIONARY
360
25C
102
}
330
2A
100
AcDbVisualStyle
  2
GouraudWithEdges
 70
     3
 71
     2
 72
     2
 73
     1
 90
        2
 40
-0.6
 41
30.0
 62
     5
 63
     7
 74
     1
 91
        4
 64
     7
 65
   257
 75
     1
175
     1
 42
1.0
 92
        0
 66
   257
 43
1.0
 76
     1
 77
     6
 78
     2
 67
     7
 79
     5
170
     0
171
     0
290
     0
174
     0
 93
       13
 44
0.0
173
     0
291
     1
 45
0.0
1001
ACAD
1000
AcDbSavedByObjectVersion
1070
     0
  0
VISUALSTYLE
  5
38
102
{ACAD_REACTORS
330
2A
102
}
102
{ACAD_XDICTIONARY
360
270
102
}
330
2A
100
AcDbVisualStyle
  2
Linepattern
 70
    14
 71
     2
 72
     2
 73
     0
 90
        0
 40
-0.6
 41
-30.0
 62
     5
 63
     7
 74
     1
 91
        4
 64
     7
 65
   257
 75
     7
175
     7
 42
1.0
 92
        8
 66
     7
 43
1.0
 76
     1
 77
     6
 78
     2
 67
     7
 79
     5
170
     0
171
     0
290
     0
174
     0
 93
        1
 44
0.0
173
     0
291
     1
 45
0.0
1001
ACAD
1000
AcDbSavedByObjectVersion
1070
     0
  0
VISUALSTYLE
  5
33
102
{ACAD_REACTORS
330
2A
102
}
102
{ACAD_XDICTIONARY
360
266
102
}
330
2A
100
AcDbVisualStyle
  2
Realistic
 70
     8
 71
     2
 72
     2
 73
     0
 90
        0
 40
-0.6
 41
-30.0
 62
     5
 63
     7
 74
     1
 91
        0
 64
     7
 65
   257
 75
     1
175
     1
 42
1.0
 92
        8
 66
     8
 43
1.0
 76
     1
 77
     6
 78
     2
 67
     7
 79
     5
170
     0
171
     0
290
     0
174
     0
 93
       13
 44
0.0
173
     0
291
     0
 45
0.0
1001
ACAD
1000
AcDbSavedByObjectVersion
1070
     0
  0
VISUALSTYLE
  5
37
102
{ACAD_REACTORS
330
2A
102
}
102
{ACAD_XDICTIONARY
360
26E
102
}
330
2A
100
AcDbVisualStyle
  2
Thicken
 70
    13
 71
     2
 72
     2
 73
     0
 90
        0
 40
-0.6
 41
-30.0
 62
     5
 63
     7
 74
     1
 91
        4
 64
     7
 65
   257
 75
     1
175
     1
 42
1.0
 92
       12
 66
     7
 43
1.0
 76
     1
 77
     6
 78
     2
 67
     7
 79
     5
170
     0
171
     0
290
     0
174
     0
 93
        1
 44
0.0
173
     0
291
     1
 45
0.0
1001
ACAD
1000
AcDbSavedByObjectVersion
1070
     0
  0
DICTIONARYVAR
  5
253
102
{ACAD_REACTORS
330
250
102
}
330
250
100
DictionaryVariables
280
     0
  1
1:1
  0
DICTIONARYVAR
  5
254
102
{ACAD_REACTORS
330
250
102
}
330
250
100
DictionaryVariables
280
     0
  1
2
  0
DICTIONARYVAR
  5
255
102
{ACAD_REACTORS
330
250
102
}
330
250
100
DictionaryVariables
280
     0
  1
1
  0
DICTIONARY
  5
278
330
3D
100
AcDbDictionary
280
     1
281
     1
  3
ACAD_XREC_ROUNDTRIP
360
279
  0
DICTIONARY
  5
276
330
3C
100
AcDbDictionary
280
     1
281
     1
  3
ACAD_XREC_ROUNDTRIP
360
277
  0
DICTIONARY
  5
27A
330
3E
100
AcDbDictionary
280
     1
281
     1
  3
ACAD_XREC_ROUNDTRIP
360
27B
  0
DICTIONARY
  5
25E
330
2F
100
AcDbDictionary
280
     1
281
     1
  3
ACAD_XREC_ROUNDTRIP
360
25F
  0
DICTIONARY
  5
262
330
31
100
AcDbDictionary
280
     1
281
     1
  3
ACAD_XREC_ROUNDTRIP
360
263
  0
DICTIONARY
  5
260
330
30
100
AcDbDictionary
280
     1
281
     1
  3
ACAD_XREC_ROUNDTRIP
360
261
  0
DICTIONARY
  5
264
330
32
100
AcDbDictionary
280
     1
281
     1
  3
ACAD_XREC_ROUNDTRIP
360
265
  0
DICTIONARY
  5
26C
330
36
100
AcDbDictionary
280
     1
281
     1
  3
ACAD_XREC_ROUNDTRIP
360
26D
  0
DICTIONARY
  5
274
330
3A
100
AcDbDictionary
280
     1
281
     1
  3
ACAD_XREC_ROUNDTRIP
360
275
  0
DICTIONARY
  5
268
330
34
100
AcDbDictionary
280
     1
281
     1
  3
ACAD_XREC_ROUNDTRIP
360
269
  0
DICTIONARY
  5
26A
330
35
100
AcDbDictionary
280
     1
281
     1
  3
ACAD_XREC_ROUNDTRIP
360
26B
  0
DICTIONARY
  5
272
330
39
100
AcDbDictionary
280
     1
281
     1
  3
ACAD_XREC_ROUNDTRIP
360
273
  0
DICTIONARY
  5
256
330
2B
100
AcDbDictionary
280
     1
281
     1
  3
ACAD_XREC_ROUNDTRIP
360
257
  0
DICTIONARY
  5
258
330
2C
100
AcDbDictionary
280
     1
281
     1
  3
ACAD_XREC_ROUNDTRIP
360
259
  0
DICTIONARY
  5
25A
330
2D
100
AcDbDictionary
280
     1
281
     1
  3
ACAD_XREC_ROUNDTRIP
360
25B
  0
DICTIONARY
  5
25C
330
2E
100
AcDbDictionary
280
     1
281
     1
  3
ACAD_XREC_ROUNDTRIP
360
25D
  0
DICTIONARY
  5
270
330
38
100
AcDbDictionary
280
     1
281
     1
  3
ACAD_XREC_ROUNDTRIP
360
271
  0
DICTIONARY
  5
266
330
33
100
AcDbDictionary
280
     1
281
     1
  3
ACAD_XREC_ROUNDTRIP
360
267
  0
DICTIONARY
  5
26E
330
37
100
AcDbDictionary
280
     1
281
     1
  3
ACAD_XREC_ROUNDTRIP
360
26F
  0
XRECORD
  5
279
102
{ACAD_REACTORS
330
278
102
}
330
278
100
AcDbXrecord
280
     1
102
MATERIAL
148
0.0
149
0.0
149
0.0
 93
        0
 94
      127
282
     0
 72
     1
 77
     1
171
     1
175
     1
179
     1
273
     0
  0
XRECORD
  5
277
102
{ACAD_REACTORS
330
276
102
}
330
276
100
AcDbXrecord
280
     1
102
MATERIAL
148
0.0
149
0.0
149
0.0
 93
        0
 94
      127
282
     0
 72
     1
 77
     1
171
     1
175
     1
179
     1
273
     0
  0
XRECORD
  5
27B
102
{ACAD_REACTORS
330
27A
102
}
330
27A
100
AcDbXrecord
280
     1
102
MATERIAL
148
0.0
149
0.0
149
0.0
 93
        0
 94
      127
282
     0
 72
     1
 77
     1
171
     1
175
     1
179
     1
273
     0
  0
XRECORD
  5
25F
102
{ACAD_REACTORS
330
25E
102
}
330
25E
100
AcDbXrecord
280
     1
102
RTVSPropertyOp0
 70
     1
102
RTVSPropertyOp1
 70
     1
102
RTVSPropertyOp2
 70
     1
102
RTVSPropertyOp3
 70
     1
102
RTVSPropertyOp4
 70
     1
102
RTVSPropertyOp5
 70
     1
102
RTVSPropertyOp6
 70
     1
102
RTVSPropertyOp7
 70
     1
102
RTVSPropertyOp8
 70
     1
102
RTVSPropertyOp9
 70
     1
102
RTVSPropertyOp10
 70
     1
102
RTVSPropertyOp11
 70
     1
102
RTVSPropertyOp12
 70
     1
102
RTVSPropertyOp13
 70
     1
102
RTVSPropertyOp14
 70
     1
102
RTVSPropertyOp15
 70
     1
102
RTVSPropertyOp16
 70
     1
102
RTVSPropertyOp17
 70
     1
102
RTVSPropertyOp18
 70
     1
102
RTVSPropertyOp19
 70
     1
102
RTVSPropertyOp20
 70
     1
102
RTVSPropertyOp21
 70
     1
102
RTVSPropertyOp22
 70
     1
102
RTVSPropertyOp23
 70
     1
102
RTVSPropertyOp24
 70
     1
102
RTVSPropertyOp25
 70
     1
102
RTVSPropertyOp26
 70
     1
102
RTVSPropertyOp27
 70
     1
  0
XRECORD
  5
263
102
{ACAD_REACTORS
330
262
102
}
330
262
100
AcDbXrecord
280
     1
102
RTVSPropertyOp0
 70
     1
102
RTVSPropertyOp1
 70
     1
102
RTVSPropertyOp2
 70
     1
102
RTVSPropertyOp3
 70
     1
102
RTVSPropertyOp4
 70
     1
102
RTVSPropertyOp5
 70
     1
102
RTVSPropertyOp6
 70
     1
102
RTVSPropertyOp7
 70
     1
102
RTVSPropertyOp8
 70
     1
102
RTVSPropertyOp9
 70
     1
102
RTVSPropertyOp10
 70
     1
102
RTVSPropertyOp11
 70
     1
102
RTVSPropertyOp12
 70
     1
102
RTVSPropertyOp13
 70
     1
102
RTVSPropertyOp14
 70
     1
102
RTVSPropertyOp15
 70
     1
102
RTVSPropertyOp16
 70
     1
102
RTVSPropertyOp17
 70
     1
102
RTVSPropertyOp18
 70
     1
102
RTVSPropertyOp19
 70
     1
102
RTVSPropertyOp20
 70
     1
102
RTVSPropertyOp21
 70
     1
102
RTVSPropertyOp22
 70
     1
102
RTVSPropertyOp23
 70
     1
102
RTVSPropertyOp24
 70
     1
102
RTVSPropertyOp25
 70
     1
102
RTVSPropertyOp26
 70
     1
102
RTVSPropertyOp27
 70
     1
  0
XRECORD
  5
261
102
{ACAD_REACTORS
330
260
102
}
330
260
100
AcDbXrecord
280
     1
102
RTVSPropertyOp0
 70
     1
102
RTVSPropertyOp1
 70
     1
102
RTVSPropertyOp2
 70
     1
102
RTVSPropertyOp3
 70
     1
102
RTVSPropertyOp4
 70
     1
102
RTVSPropertyOp5
 70
     1
102
RTVSPropertyOp6
 70
     1
102
RTVSPropertyOp7
 70
     1
102
RTVSPropertyOp8
 70
     1
102
RTVSPropertyOp9
 70
     1
102
RTVSPropertyOp10
 70
     1
102
RTVSPropertyOp11
 70
     1
102
RTVSPropertyOp12
 70
     1
102
RTVSPropertyOp13
 70
     1
102
RTVSPropertyOp14
 70
     1
102
RTVSPropertyOp15
 70
     1
102
RTVSPropertyOp16
 70
     1
102
RTVSPropertyOp17
 70
     1
102
RTVSPropertyOp18
 70
     1
102
RTVSPropertyOp19
 70
     1
102
RTVSPropertyOp20
 70
     1
102
RTVSPropertyOp21
 70
     1
102
RTVSPropertyOp22
 70
     1
102
RTVSPropertyOp23
 70
     1
102
RTVSPropertyOp24
 70
     1
102
RTVSPropertyOp25
 70
     1
102
RTVSPropertyOp26
 70
     1
102
RTVSPropertyOp27
 70
     1
  0
XRECORD
  5
265
102
{ACAD_REACTORS
330
264
102
}
330
264
100
AcDbXrecord
280
     1
102
RTVSPropertyOp0
 70
     1
102
RTVSPropertyOp1
 70
     1
102
RTVSPropertyOp2
 70
     1
102
RTVSPropertyOp3
 70
     1
102
RTVSPropertyOp4
 70
     1
102
RTVSPropertyOp5
 70
     1
102
RTVSPropertyOp6
 70
     1
102
RTVSPropertyOp7
 70
     1
102
RTVSPropertyOp8
 70
     1
102
RTVSPropertyOp9
 70
     1
102
RTVSPropertyOp10
 70
     1
102
RTVSPropertyOp11
 70
     1
102
RTVSPropertyOp12
 70
     1
102
RTVSPropertyOp13
 70
     1
102
RTVSPropertyOp14
 70
     1
102
RTVSPropertyOp15
 70
     1
102
RTVSPropertyOp16
 70
     1
102
RTVSPropertyOp17
 70
     1
102
RTVSPropertyOp18
 70
     1
102
RTVSPropertyOp19
 70
     1
102
RTVSPropertyOp20
 70
     1
102
RTVSPropertyOp21
 70
     1
102
RTVSPropertyOp22
 70
     1
102
RTVSPropertyOp23
 70
     1
102
RTVSPropertyOp24
 70
     1
102
RTVSPropertyOp25
 70
     1
102
RTVSPropertyOp26
 70
     1
102
RTVSPropertyOp27
 70
     1
  0
XRECORD
  5
26D
102
{ACAD_REACTORS
330
26C
102
}
330
26C
100
AcDbXrecord
280
     1
102
RTVSPropertyOp0
 70
     1
102
RTVSPropertyOp1
 70
     1
102
RTVSPropertyOp2
 70
     1
102
RTVSPropertyOp3
 70
     1
102
RTVSPropertyOp4
 70
     1
102
RTVSPropertyOp5
 70
     1
102
RTVSPropertyOp6
 70
     1
102
RTVSPropertyOp7
 70
     1
102
RTVSPropertyOp8
 70
     1
102
RTVSPropertyOp9
 70
     1
102
RTVSPropertyOp10
 70
     1
102
RTVSPropertyOp11
 70
     1
102
RTVSPropertyOp12
 70
     1
102
RTVSPropertyOp13
 70
     1
102
RTVSPropertyOp14
 70
     1
102
RTVSPropertyOp15
 70
     1
102
RTVSPropertyOp16
 70
     1
102
RTVSPropertyOp17
 70
     1
102
RTVSPropertyOp18
 70
     1
102
RTVSPropertyOp19
 70
     1
102
RTVSPropertyOp20
 70
     1
102
RTVSPropertyOp21
 70
     1
102
RTVSPropertyOp22
 70
     1
102
RTVSPropertyOp23
 70
     1
102
RTVSPropertyOp24
 70
     1
102
RTVSPropertyOp25
 70
     1
102
RTVSPropertyOp26
 70
     1
102
RTVSPropertyOp27
 70
     1
  0
XRECORD
  5
275
102
{ACAD_REACTORS
330
274
102
}
330
274
100
AcDbXrecord
280
     1
102
RTVSPropertyOp0
 70
     1
102
RTVSPropertyOp1
 70
     1
102
RTVSPropertyOp2
 70
     1
102
RTVSPropertyOp3
 70
     1
102
RTVSPropertyOp4
 70
     1
102
RTVSPropertyOp5
 70
     1
102
RTVSPropertyOp6
 70
     1
102
RTVSPropertyOp7
 70
     1
102
RTVSPropertyOp8
 70
     1
102
RTVSPropertyOp9
 70
     1
102
RTVSPropertyOp10
 70
     1
102
RTVSPropertyOp11
 70
     1
102
RTVSPropertyOp12
 70
     1
102
RTVSPropertyOp13
 70
     1
102
RTVSPropertyOp14
 70
     1
102
RTVSPropertyOp15
 70
     1
102
RTVSPropertyOp16
 70
     1
102
RTVSPropertyOp17
 70
     1
102
RTVSPropertyOp18
 70
     1
102
RTVSPropertyOp19
 70
     1
102
RTVSPropertyOp20
 70
     1
102
RTVSPropertyOp21
 70
     1
102
RTVSPropertyOp22
 70
     1
102
RTVSPropertyOp23
 70
     1
102
RTVSPropertyOp24
 70
     1
102
RTVSPropertyOp25
 70
     1
102
RTVSPropertyOp26
 70
     1
102
RTVSPropertyOp27
 70
     1
  0
XRECORD
  5
269
102
{ACAD_REACTORS
330
268
102
}
330
268
100
AcDbXrecord
280
     1
102
RTVSPropertyOp0
 70
     1
102
RTVSPropertyOp1
 70
     1
102
RTVSPropertyOp2
 70
     1
102
RTVSPropertyOp3
 70
     1
102
RTVSPropertyOp4
 70
     1
102
RTVSPropertyOp5
 70
     1
102
RTVSPropertyOp6
 70
     1
102
RTVSPropertyOp7
 70
     1
102
RTVSPropertyOp8
 70
     1
102
RTVSPropertyOp9
 70
     1
102
RTVSPropertyOp10
 70
     1
102
RTVSPropertyOp11
 70
     1
102
RTVSPropertyOp12
 70
     1
102
RTVSPropertyOp13
 70
     1
102
RTVSPropertyOp14
 70
     1
102
RTVSPropertyOp15
 70
     1
102
RTVSPropertyOp16
 70
     1
102
RTVSPropertyOp17
 70
     1
102
RTVSPropertyOp18
 70
     1
102
RTVSPropertyOp19
 70
     1
102
RTVSPropertyOp20
 70
     1
102
RTVSPropertyOp21
 70
     1
102
RTVSPropertyOp22
 70
     1
102
RTVSPropertyOp23
 70
     1
102
RTVSPropertyOp24
 70
     1
102
RTVSPropertyOp25
 70
     1
102
RTVSPropertyOp26
 70
     1
102
RTVSPropertyOp27
 70
     1
  0
XRECORD
  5
26B
102
{ACAD_REACTORS
330
26A
102
}
330
26A
100
AcDbXrecord
280
     1
102
RTVSPropertyOp0
 70
     1
102
RTVSPropertyOp1
 70
     1
102
RTVSPropertyOp2
 70
     1
102
RTVSPropertyOp3
 70
     1
102
RTVSPropertyOp4
 70
     1
102
RTVSPropertyOp5
 70
     1
102
RTVSPropertyOp6
 70
     1
102
RTVSPropertyOp7
 70
     1
102
RTVSPropertyOp8
 70
     1
102
RTVSPropertyOp9
 70
     1
102
RTVSPropertyOp10
 70
     1
102
RTVSPropertyOp11
 70
     1
102
RTVSPropertyOp12
 70
     1
102
RTVSPropertyOp13
 70
     1
102
RTVSPropertyOp14
 70
     1
102
RTVSPropertyOp15
 70
     1
102
RTVSPropertyOp16
 70
     1
102
RTVSPropertyOp17
 70
     1
102
RTVSPropertyOp18
 70
     1
102
RTVSPropertyOp19
 70
     1
102
RTVSPropertyOp20
 70
     1
102
RTVSPropertyOp21
 70
     1
102
RTVSPropertyOp22
 70
     1
102
RTVSPropertyOp23
 70
     1
102
RTVSPropertyOp24
 70
     1
102
RTVSPropertyOp25
 70
     1
102
RTVSPropertyOp26
 70
     1
102
RTVSPropertyOp27
 70
     1
  0
XRECORD
  5
273
102
{ACAD_REACTORS
330
272
102
}
330
272
100
AcDbXrecord
280
     1
102
RTVSPropertyOp0
 70
     1
102
RTVSPropertyOp1
 70
     1
102
RTVSPropertyOp2
 70
     1
102
RTVSPropertyOp3
 70
     1
102
RTVSPropertyOp4
 70
     1
102
RTVSPropertyOp5
 70
     1
102
RTVSPropertyOp6
 70
     1
102
RTVSPropertyOp7
 70
     1
102
RTVSPropertyOp8
 70
     1
102
RTVSPropertyOp9
 70
     1
102
RTVSPropertyOp10
 70
     1
102
RTVSPropertyOp11
 70
     1
102
RTVSPropertyOp12
 70
     1
102
RTVSPropertyOp13
 70
     1
102
RTVSPropertyOp14
 70
     1
102
RTVSPropertyOp15
 70
     1
102
RTVSPropertyOp16
 70
     1
102
RTVSPropertyOp17
 70
     1
102
RTVSPropertyOp18
 70
     1
102
RTVSPropertyOp19
 70
     1
102
RTVSPropertyOp20
 70
     1
102
RTVSPropertyOp21
 70
     1
102
RTVSPropertyOp22
 70
     1
102
RTVSPropertyOp23
 70
     1
102
RTVSPropertyOp24
 70
     1
102
RTVSPropertyOp25
 70
     1
102
RTVSPropertyOp26
 70
     1
102
RTVSPropertyOp27
 70
     1
  0
XRECORD
  5
257
102
{ACAD_REACTORS
330
256
102
}
330
256
100
AcDbXrecord
280
     1
102
RTVSPropertyOp0
 70
     1
102
RTVSPropertyOp1
 70
     1
102
RTVSPropertyOp2
 70
     1
102
RTVSPropertyOp3
 70
     1
102
RTVSPropertyOp4
 70
     1
102
RTVSPropertyOp5
 70
     1
102
RTVSPropertyOp6
 70
     1
102
RTVSPropertyOp7
 70
     1
102
RTVSPropertyOp8
 70
     1
102
RTVSPropertyOp9
 70
     1
102
RTVSPropertyOp10
 70
     1
102
RTVSPropertyOp11
 70
     1
102
RTVSPropertyOp12
 70
     1
102
RTVSPropertyOp13
 70
     1
102
RTVSPropertyOp14
 70
     1
102
RTVSPropertyOp15
 70
     1
102
RTVSPropertyOp16
 70
     1
102
RTVSPropertyOp17
 70
     1
102
RTVSPropertyOp18
 70
     1
102
RTVSPropertyOp19
 70
     1
102
RTVSPropertyOp20
 70
     1
102
RTVSPropertyOp21
 70
     1
102
RTVSPropertyOp22
 70
     1
102
RTVSPropertyOp23
 70
     1
102
RTVSPropertyOp24
 70
     1
102
RTVSPropertyOp25
 70
     1
102
RTVSPropertyOp26
 70
     1
102
RTVSPropertyOp27
 70
     1
  0
XRECORD
  5
259
102
{ACAD_REACTORS
330
258
102
}
330
258
100
AcDbXrecord
280
     1
102
RTVSPropertyOp0
 70
     1
102
RTVSPropertyOp1
 70
     1
102
RTVSPropertyOp2
 70
     1
102
RTVSPropertyOp3
 70
     1
102
RTVSPropertyOp4
 70
     1
102
RTVSPropertyOp5
 70
     1
102
RTVSPropertyOp6
 70
     1
102
RTVSPropertyOp7
 70
     1
102
RTVSPropertyOp8
 70
     1
102
RTVSPropertyOp9
 70
     1
102
RTVSPropertyOp10
 70
     1
102
RTVSPropertyOp11
 70
     1
102
RTVSPropertyOp12
 70
     1
102
RTVSPropertyOp13
 70
     1
102
RTVSPropertyOp14
 70
     1
102
RTVSPropertyOp15
 70
     1
102
RTVSPropertyOp16
 70
     1
102
RTVSPropertyOp17
 70
     1
102
RTVSPropertyOp18
 70
     1
102
RTVSPropertyOp19
 70
     1
102
RTVSPropertyOp20
 70
     1
102
RTVSPropertyOp21
 70
     1
102
RTVSPropertyOp22
 70
     1
102
RTVSPropertyOp23
 70
     1
102
RTVSPropertyOp24
 70
     1
102
RTVSPropertyOp25
 70
     1
102
RTVSPropertyOp26
 70
     1
102
RTVSPropertyOp27
 70
     1
  0
XRECORD
  5
25B
102
{ACAD_REACTORS
330
25A
102
}
330
25A
100
AcDbXrecord
280
     1
102
RTVSPropertyOp0
 70
     1
102
RTVSPropertyOp1
 70
     1
102
RTVSPropertyOp2
 70
     1
102
RTVSPropertyOp3
 70
     1
102
RTVSPropertyOp4
 70
     1
102
RTVSPropertyOp5
 70
     1
102
RTVSPropertyOp6
 70
     1
102
RTVSPropertyOp7
 70
     1
102
RTVSPropertyOp8
 70
     1
102
RTVSPropertyOp9
 70
     1
102
RTVSPropertyOp10
 70
     1
102
RTVSPropertyOp11
 70
     1
102
RTVSPropertyOp12
 70
     1
102
RTVSPropertyOp13
 70
     1
102
RTVSPropertyOp14
 70
     1
102
RTVSPropertyOp15
 70
     1
102
RTVSPropertyOp16
 70
     1
102
RTVSPropertyOp17
 70
     1
102
RTVSPropertyOp18
 70
     1
102
RTVSPropertyOp19
 70
     1
102
RTVSPropertyOp20
 70
     1
102
RTVSPropertyOp21
 70
     1
102
RTVSPropertyOp22
 70
     1
102
RTVSPropertyOp23
 70
     1
102
RTVSPropertyOp24
 70
     1
102
RTVSPropertyOp25
 70
     1
102
RTVSPropertyOp26
 70
     1
102
RTVSPropertyOp27
 70
     1
  0
XRECORD
  5
25D
102
{ACAD_REACTORS
330
25C
102
}
330
25C
100
AcDbXrecord
280
     1
102
RTVSPropertyOp0
 70
     1
102
RTVSPropertyOp1
 70
     1
102
RTVSPropertyOp2
 70
     1
102
RTVSPropertyOp3
 70
     1
102
RTVSPropertyOp4
 70
     1
102
RTVSPropertyOp5
 70
     1
102
RTVSPropertyOp6
 70
     1
102
RTVSPropertyOp7
 70
     1
102
RTVSPropertyOp8
 70
     1
102
RTVSPropertyOp9
 70
     1
102
RTVSPropertyOp10
 70
     1
102
RTVSPropertyOp11
 70
     1
102
RTVSPropertyOp12
 70
     1
102
RTVSPropertyOp13
 70
     1
102
RTVSPropertyOp14
 70
     1
102
RTVSPropertyOp15
 70
     1
102
RTVSPropertyOp16
 70
     1
102
RTVSPropertyOp17
 70
     1
102
RTVSPropertyOp18
 70
     1
102
RTVSPropertyOp19
 70
     1
102
RTVSPropertyOp20
 70
     1
102
RTVSPropertyOp21
 70
     1
102
RTVSPropertyOp22
 70
     1
102
RTVSPropertyOp23
 70
     1
102
RTVSPropertyOp24
 70
     1
102
RTVSPropertyOp25
 70
     1
102
RTVSPropertyOp26
 70
     1
102
RTVSPropertyOp27
 70
     1
  0
XRECORD
  5
271
102
{ACAD_REACTORS
330
270
102
}
330
270
100
AcDbXrecord
280
     1
102
RTVSPropertyOp0
 70
     1
102
RTVSPropertyOp1
 70
     1
102
RTVSPropertyOp2
 70
     1
102
RTVSPropertyOp3
 70
     1
102
RTVSPropertyOp4
 70
     1
102
RTVSPropertyOp5
 70
     1
102
RTVSPropertyOp6
 70
     1
102
RTVSPropertyOp7
 70
     1
102
RTVSPropertyOp8
 70
     1
102
RTVSPropertyOp9
 70
     1
102
RTVSPropertyOp10
 70
     1
102
RTVSPropertyOp11
 70
     1
102
RTVSPropertyOp12
 70
     1
102
RTVSPropertyOp13
 70
     1
102
RTVSPropertyOp14
 70
     1
102
RTVSPropertyOp15
 70
     1
102
RTVSPropertyOp16
 70
     1
102
RTVSPropertyOp17
 70
     1
102
RTVSPropertyOp18
 70
     1
102
RTVSPropertyOp19
 70
     1
102
RTVSPropertyOp20
 70
     1
102
RTVSPropertyOp21
 70
     1
102
RTVSPropertyOp22
 70
     1
102
RTVSPropertyOp23
 70
     1
102
RTVSPropertyOp24
 70
     1
102
RTVSPropertyOp25
 70
     1
102
RTVSPropertyOp26
 70
     1
102
RTVSPropertyOp27
 70
     1
  0
XRECORD
  5
267
102
{ACAD_REACTORS
330
266
102
}
330
266
100
AcDbXrecord
280
     1
102
RTVSPropertyOp0
 70
     1
102
RTVSPropertyOp1
 70
     1
102
RTVSPropertyOp2
 70
     1
102
RTVSPropertyOp3
 70
     1
102
RTVSPropertyOp4
 70
     1
102
RTVSPropertyOp5
 70
     1
102
RTVSPropertyOp6
 70
     1
102
RTVSPropertyOp7
 70
     1
102
RTVSPropertyOp8
 70
     1
102
RTVSPropertyOp9
 70
     1
102
RTVSPropertyOp10
 70
     1
102
RTVSPropertyOp11
 70
     1
102
RTVSPropertyOp12
 70
     1
102
RTVSPropertyOp13
 70
     1
102
RTVSPropertyOp14
 70
     1
102
RTVSPropertyOp15
 70
     1
102
RTVSPropertyOp16
 70
     1
102
RTVSPropertyOp17
 70
     1
102
RTVSPropertyOp18
 70
     1
102
RTVSPropertyOp19
 70
     1
102
RTVSPropertyOp20
 70
     1
102
RTVSPropertyOp21
 70
     1
102
RTVSPropertyOp22
 70
     1
102
RTVSPropertyOp23
 70
     1
102
RTVSPropertyOp24
 70
     1
102
RTVSPropertyOp25
 70
     1
102
RTVSPropertyOp26
 70
     1
102
RTVSPropertyOp27
 70
     1
  0
XRECORD
  5
26F
102
{ACAD_REACTORS
330
26E
102
}
330
26E
100
AcDbXrecord
280
     1
102
RTVSPropertyOp0
 70
     1
102
RTVSPropertyOp1
 70
     1
102
RTVSPropertyOp2
 70
     1
102
RTVSPropertyOp3
 70
     1
102
RTVSPropertyOp4
 70
     1
102
RTVSPropertyOp5
 70
     1
102
RTVSPropertyOp6
 70
     1
102
RTVSPropertyOp7
 70
     1
102
RTVSPropertyOp8
 70
     1
102
RTVSPropertyOp9
 70
     1
102
RTVSPropertyOp10
 70
     1
102
RTVSPropertyOp11
 70
     1
102
RTVSPropertyOp12
 70
     1
102
RTVSPropertyOp13
 70
     1
102
RTVSPropertyOp14
 70
     1
102
RTVSPropertyOp15
 70
     1
102
RTVSPropertyOp16
 70
     1
102
RTVSPropertyOp17
 70
     1
102
RTVSPropertyOp18
 70
     1
102
RTVSPropertyOp19
 70
     1
102
RTVSPropertyOp20
 70
     1
102
RTVSPropertyOp21
 70
     1
102
RTVSPropertyOp22
 70
     1
102
RTVSPropertyOp23
 70
     1
102
RTVSPropertyOp24
 70
     1
102
RTVSPropertyOp25
 70
     1
102
RTVSPropertyOp26
 70
     1
102
RTVSPropertyOp27
 70
     1
  0
ENDSEC
  0
EOF
